アットウィキロゴ

君だったから

アーティスト 中野家の五つ子

BPM BASIC ADVANCED EXPERT MASTER Re:MASTER
125 3 6 9+ 12+ -

EXPERT MASTER Re:MASTER
譜面制作者 サファ太 Luxizhel -

BASIC


ADVANCED


EXPERT

(125)
{1},

{2}3h[2:1]/5h[2:1],{4},35,
{2}4h[2:1]/6h[2:1],{4},46,
{2}3h[2:1]/5h[2:1],{4},35,
{2}2h[4:1]/6h[4:1],{4}17,17,
{4}2,3h[2:1],,4,
{4}5,6h[2:1],,5,
{4}4x/7x,{8}36,36,,25,,Chf[8:5],
{1},

{4}1,2bx/8bx,7h[4:1],8,
{1}1>3[4:1]/6<8[4:1],
{4}8,17,2h[4:1],{8}1,1,
{8},28,,37,,46,{4}46,
{4}57,1bx,2h[4:1]/8,1,
{1}2>5[4:1]/8<5[4:1],
{2}7h[4:1]/8h[4:1],{4}78,{8}1,1,
{8},28,,37,,46,{4}4/6<3[2:1],
{1},

{4}3h[8:3],{8},4,{4}4,45,
{4}6h[8:3],{8},5,{4}5,45,
{4}3h[8:3],{8},4,{4}4,4/5<1[2:1],
{2},{4},34,
{2}2h[4:1]/5h[4:1],3h[4:1]/6h[4:1],
{2}4h[4:1]/7h[4:1],{4}56,47,
{2}3/8<5[4:1],1>4[4:1],
{4}6h[8:3],{8},5,{4}5,3x/7x,

{8}2,2,{4}1,18,18,
{8}7,7,{4}8,18,18,
{4}2h[4:1],4,6h[4:1],5,
{4}3h[4:1],1,18,18,
{2}7h[2:1],{4}E8,E7,
{4}E6,E5,{2}E4/C,
{4}1h[4:1]/2h[4:1],{8},1x/8x,,7x<4[8:3]/8xp3[8:3],{4},
{2},{4},2x/5x,

{1}3V52-8[2:1]/4,
{4}7,7,6,56,
{1}5/6V47-1[2:1],
{2}2x>5b[4:1],{8},6x,6x,5x,
{8},46,{4}46,5h[4:1]/7h[4:1],{8},8,
{1}1bxw5[4:1]/8,
{2}B3/B4/B5/B6/Cf,{8}8,8,{4}8V26-4[4:3],
{1},
{8}3x,3x,4x,4x,{4}3x/5x,{8}46,4b/6b,

{8},12,{4}12,{8}78,7<4[4:1]/8,{4},
{4},2x,{8}13,13,,18,
{8},68,{4}68,{8}12,1q6[4:1]/2>5[4:1],{4},
{4},{8},4x/7x,{4}4bx/7bx,{8}3,3h[4:1],
{8},1h[4:1],,8h[4:1],,6,,45,
{8},6,6,57,,8,{4}8V64[4:1],
{4},1V35[4:1],,{8}8bx,8x,
{8},7v4[4:1]/1v4[4:1],{4},,{8},3x/5x,

{8},12,{4}12,{8}78,7<4[4:1]/8,{4},
{4},2x,{8}13,13,,18,
{8},68,{4}68,{8}12,1-6[8:1]/2-5[8:1],{4},
{8},4x/7x,{4}4bx/7bx,{16}7x/8x,,,1x/6x,,,{8}2x/5x,
{4}2x/5x,{8}38,38,,16,,B2/B3/B6/B7/Ch[8:3],
{2},{8}1x/8x,1x/8x,,3b/6b,
{8},7,7,78,,2,2,12,
{8},34,,56,,8,8,1b/7b,
{8},2,2,13,,7,7,68,
{8},45,,24,,1,1,2b/8b,
{8},7,7,3,3,6,6,45,
{1}4bqq4b[2:1]*pp4b[2:1]/5,

{4}2b/6b,26,{8}7,7,{4}8,
{8}2,2,{4}1,38,16,
{8}78,78,{4}78,{8}1,1h[4:1],,3hx[4:1],
{8},5h[4:1],,7h[4:1],,8,,1bx/6bx,
{8},2,{4}2<7[4:1],,6-1[4:1],
{4},2>5[4:1],,8x,
{8}7,7,{4}8,12,{8}3x/4x,3x/4x,
{8},67,,23,,18,,B2/B3/B6/B7/Ch[1:2],
{1},
{1},
E

MASTER

(125)
{1},

{2}3<5[8:1],5>3[8:1],
{4}3h[4:1],5,6h[4:1],4,
{2}6>4[8:1],4<6[8:1],
{4}3h[4:1],5,6,47,
{4}6q3[2:1],5,4,4,
{4}4q5[2:1],5,6,{8}6,7,
{4}7h[4:1],{8}5,5h[4:1],,4h[4:1],,2x,
{8},18,27,36,{2}4-1[8:1]/5-8[8:1],

{4}B3/B7/E3/E7/Cf,1-7[8:1]/2-4[8:1],12,{8},5>2[8:1]/6,
{8},7,6,25,,{16}3,4,{8}2,{16}6,5,
{4}7b,1/2q5[8:3],{8}1,8,7,6,
{8},47,{4}4>1[8:1]/7,8<5[8:1],1x,
{4}2bx/5bx,3-1[8:1]/4-6[8:1],34,{8},7/8>3[8:1],
{8},6,7,38,,{16}2,1,{8}2,{16}7,8,
{4}7b,{8}16,1/6h[2:1],,8,1,2bhx[2:1],
{8},6,5,4b,,15,26,37,
{2}4q1[4:1]/8h[2:1],{4},18,

{4}3h[4:1]/4h[4:1],{8},25,{4}25,B1/B8/E2/E8,
{4}5h[4:1]/6h[4:1],{8},47,{4}47,B3/B4/E3/E5,
{4}12,{8}34,34,,56,,78,
{8},16,{4}16,3x/4x,{8}3,4,
{4}2h[2:1],{8}1,1,{4}8h[4:1],{8}2,3,
{8}4,5,6,7h[4:1],,1,1,{16}7,8,
{4}6h[4:1],8h[4:1],1h[4:1],3h[4:1],
{4}5h[8:3],{8},{16}4,6,{4}1,7-4[8:1],

{4}3-8[8:1],6-1[8:1],2-5[8:1],7qq4[2:1],
{2}8>3[4:1],{4},2>5[4:1],
{4}5<8[4:1],8>3[4:1],3<6[4:1],6<1[4:1],
{4}1V35[4:1],5V71[4:1],{2},
{2}Ch[2:7]f,A2/A3/D3,
{2}A1/A8/D1,A6/A7/D7,
{4}E6,E7,E8,E1,
{4}E2,E3,{2}E4,

{4}2bxq5b[16:5],{8},6bx,{4}6bx,4bx/7bx,
{4}3bxq5b[16:5],{8},6bx,{4}6bx,4bx/7bx,
{4}2bxq5b[16:5],{8},6bx,{4}6bx,{8}5bx/7bx,4bx/8bx,
{8},2bx/4bx,{4}1bx/5bx,7bx/8bx,{8}45,3<6b[8:1]/6,
{8},37,{4}8-4[8:1],5h[8:7]/8,{8},3,
{16}3bx,,,1bx,,,{8}7bhx[8:5],{16}6bx,,,8bx,,,{8}2bx,
{2}3xqq8[2:1]*pp6[2:1],{4},{8},1,
{4}1h[4:1],3h[4:1],5h[4:1],7,
{8}78,78,16,2b/5b,,3>5[8:3],,5b,

{8},3,{4}4h[8:3],{8}3,3>5[8:3],,5b,
{8},3,{4}4h[8:3],{8}3,3>5[8:3],,5b,
{8},3,{4}4-8[8:1],{8}3,3-1[8:1],,7-4[8:1],
{8},8,,15,{4}15,{8}26,2pp5[8:3]/6,
{8},7,8,1p6[8:3],{4},{8}4,3,
{8}2,2V48[4:1],4,2,,5,6,17,
{8}2,34,{4}1b/5b,{8}26,37,48,5p8[4:1]/1p4[4:1],
{2},{8},6<4[8:3],,4b,

{8},6,{4}5h[4:1],{8}6,6<4[8:3],,4b,
{8},6,{4}5h[4:1],{8}6,6<4[8:3],,4b,
{8},6,{4}5h[4:1],{8}6,6h[4:1],,8p3[4:1],
{8},1x,{4}2x,{16}2b/4b,,,1b/2b,,,{8}7b/8b,
{4}7/8>3[8:1],{8}6,6v1[8:1],,5p3>7[2:1]/6,,B8f/E1/E8,
{2},{8},6<1[8:1],5,4x/6x,
{8},5<8[8:1],4,3x/5x,,4<7[8:1],3,2hx[4:1]/4x,
{8},{16}E7,E6,E5,E4,E3,E2,{8}E1,3>8[8:1],4,3x/5x,
{8},4>1[8:1],5,4x/6x,,5>2[8:1],6,5xqq5b[4:1]*pp5b[4:1]/7x,
{2},{8},4x/6x,46,3b/7b,
{8},{16}2,8,2,8,3,7,3,7,2,6,2,6,1,7,
{4}8x-3[8:1]*-2[8:1],8-6[8:1]*-5[8:1],8w4[8:1],8<1b[1:1],

{1}Cf,
{4},7h[4:1]/8,{8}5,5h[8:1],4,4<8[4:1],
{8},3,{4}3,{8}12,1-6[8:1]/2,,3bx-8[8:1],
{8},7bx-3[8:1],,4bx-1[8:1],,8bw4[8:1],,8b,
{8},26,{4}26,{8}15,2,34,2-6[8:1]/5,
{8},8,{4}8,{8}78,56,34,12,
{8}78,{16}1,8,1,8,2,7,2,7,{8}3-8[8:1],,3/5-1[8:1],
{8},4-8[8:1]/5,,4/6-1[8:1],,6pp4[8:17]/3qq5[8:17],,3bx/6bx,
{1},
{1},
E

Re:MASTER


名前:
コメント:

タグ:

+ タグ編集
  • タグ:
最終更新:2026年02月13日 22:26