アットウィキロゴ

ビビデバ

アーティスト 星街すいせい(ホロライブ)

BPM BASIC ADVANCED EXPERT MASTER Re:MASTER
120 2 6 9+ 11+ 13

EXPERT MASTER Re:MASTER
譜面制作者 サファ太 緑風 犬三郎 シチミヘルツ

BASIC

(120){1},,
{2}4,4,4,,5,5,5x/4x,,
4,4,3,3,2,2,81,,
8,8,7,7,6,6,54,,
B5,,B4,,B6,,B3,,B7,,B2,,B8,,Ch[1:1],,,,

{4}1bx,1,1,,2,,2,,3,3,3,,34,,,,
5,5,5,,6,,6,,7,7,7,,78,,,,
8,8,81,,7,,78,,6,6,6,,65,,65,,
4,4,45,,3,,34,,2,2,2,,12,,12,,
8h[1:1]/1h[1:1],,,,,,,,

{1}1-5[4:3],,8-4[4:3],,2-6[4:3],,7-3[4:3],,
1h[1:1]/2h[1:1],,4h[1:1]/3h[1:1],,6h[1:1]/5h[1:1],,7h[1:1]/8h[1:1],,
{4}8b,8,8,,78,,78,,6,6,6,,65,,65,,
4,4,4,,43,,43,,2,2,2,,12,,,,
{1}8-4[4:3],,2-6[4:3],,

{4}7b,7,78,,6,6,65,,3,3,43,,12,,12,,
1b,1,1,,2,2,2,,3,3,3,,54,54,54,,
5,5,5,,6,6,6,,7,7,7,,81,,81,,8h[4:7]/1h[4:7],,,,{1},,
E

ADVANCED

(120){1},,
{4}3,3,3,,4,4,4,,5,5,5,,6,6,7b/5b,,
6,6,65,,7,7,78,,1,1,12,,43,43,43,,
3,3,43,,2,2,12,,8,8,78,,65,65,65,,
7-4[2:1],,,,3-6[2:1],,,,7-3[2:1],,,,1-5[2:1],,,,
6-3[2:1],,,,2-5[2:1],,,,7p4[4:5],,,,,,,,5x/4x,,,,

6,6,7,7,8,8,12,,3,3,2,2,1,1,78,,
7,7,6,6,5,5,43,,2,2,3,3,4,4,65,,
6,6,78,78,1,1,12,,3,3,12,12,8,8,78,,
7,7,65,65,4,4,43,,2,2,43,43,5,5,6bx/5bx,,
6,6,5,5,4,4,43,,

3h[2:1],,4h[2:1],,5h[2:1],,6,,6h[2:1],,5h[2:1],,4h[2:1],,3,,
B2,B3,B4,,B7,B6,B5,,B2,B3,B4,B5,B6,B7,C,,
1,1,2,2,3,3,4,4,5,5,6,6,7,7,81,,
7,7,6,6,5,5,4,4,3,3,2,2,8h[2:1]/1h[2:1],,,,
2,2,2,12,3,3,3,43,5,5,5,65,78,78,78,,
7,7,7,78,6,6,6,65,4,4,4,43,12,12,12,,

2h[2:1],,1,,3h[2:1],,4,,6h[2:1],,5,,7h[2:1],,8,,
8,7,6,5,4,3,12,,1,2,3,4,5,6,78,,
6b,6,78,78,1,1,12,12,3,3,12,12,8,8,78,,
7,7,65,65,4,4,43,43,2,2,43,43,5,5,65,,
4,4,43,,5x/4x,5x/4x,5hx[8:3]/4hx[8:3],,{1},
E

EXPERT

(120)
{1},
{1},

{4}4,3h[2:3]/5,,4,
{4},4,,4,
{4}5,4/6h[2:1],,5,
{4}3h[4:1],4h[4:1],3x,25,

{4}1bx/6bx,16,78,16,
{8}2,2,{4}1,12,18,
{4}12,12,38,47,
{4}38,12,{2}3hx[4:1]/8hx[4:1],
{4}6b,17,3,28,
{2}7h[4:1]/8h[4:1],1h[4:1]/2h[4:1],
{4}8bx,6,78,7-4[4:1]/8,
{2},3x/5x,

{2}2bx^5[4:1],6^1[4:1],
{2}3^6[4:1],7^2[4:1],
{4}3,2h[2:1]/4,3,4,
{4}5,4/6h[4:1],5,46,
{2}7^4[4:1],3^8[4:1],
{2}6^3[4:1],2^7[4:1],
{4}6h[4:1],5,2h[4:1],4,
{8}1,1,8,8,{4}2,17,
{2}2h[2:1]/6h[2:1],{4},3>6[16:5]/4p5[16:5],

{2},{4}4x/7x,56,
{8}7,7,{4}8,1x/6x,34,
{2}1/2-5[8:1],7-4[8:1]/8,
{4}1bx/2bx,{8}3,34,,6x,{4}5xq4[16:5]/6x<3[16:5],
{2},{4}2x/5x,34,
{8}6,6,{4}5,1b/7b,35,
{8}3,3,5,5,4,4,6,6,
{2}4-2[4:1]/6-8[4:1],{4},2x/8x,

{4}1bx/2bx,78,3h[4:1]/8,8,
{4}12,78,3h[4:1]/8,8,
{4}1h[8:1]/7h[8:1],3h[8:1]/8h[8:1],1h[8:1]/6h[8:1],28,
{8}6,5,{4}47,{8}3,4,{4}25,
{4}1bx/2bx,78,3h[4:1]/8,8,
{4}12,78,3h[4:1]/8,8,
{4}1h[8:1]/7h[8:1],3h[8:1]/8h[8:1],1h[8:1]/6h[8:1],2x/8x,
{8}6,6,{4}57,1x/8x,2b/4b>5[1:1],

{1},
{2},{8}4,4,5,5,

{2}3bhx[1:2],{4}E4,E3,
{4}E2,E1,C,E5,
{2}6hx[2:3],{4}E6,E7,
{4}E8,E1,{2}E2,
{4}1bx/8bx,{8}2,3,{4}46,57,
{4}18,{8}7,6,{4}35,24,
{2}3-8[4:1],7-4[4:1],
{4}1,1,{2}2b/8b,

{8}3x,3,4,4,2,2,{4}1x/2x,
{8}7,7,8,8,6,6,{4}56,
{8}3,3,4,4,2,2,{4}12,
{2}3q5[2:1]/8,{4},6x,
{8}7,7,{4}68,{8}2,2,{4}13,
{4}2h[4:1],4h[4:1],5,46,
{8}3,3,{4}24,{8}6,6,{4}57,
{2}4/5h[4:3],{4},1b,

{4}2h[8:1]/4h[8:1],2h[8:1]/4h[8:1],4h[8:1]/5h[8:1],4h[8:1]/5h[8:1],
{4}2h[8:1]/4h[8:1],1h[8:1]/8h[8:1],5h[8:1]/7h[8:1],5h[8:1]/7h[8:1],
{2}4/8p3[4:1],1q6[4:1],
{2}7^4[4:1],{8}3,3,{4}3b,
{4}2h[8:1]/4h[8:1],2h[8:1]/4h[8:1],4h[8:1]/5h[8:1],4h[8:1]/5h[8:1],
{4}2h[8:1]/4h[8:1],1h[8:1]/8h[8:1],5h[8:1]/7h[8:1],5h[8:1]/7h[8:1],
{2}4p7[4:1],5q2[4:1],
{2}3^6[4:1],{4}8,17,

{4}2b/6bh[2:1],{8},5,{4}5,35,
{4}2/6h[2:1],{8},5,{4}5,35,
{4}2/6h[2:1],{8},5,{4}5,35,
{2}B3/B4/B5/B6/Ch[4:1],{4},1q8[16:5]/2>7[16:5],

{2},{4}1x/6x,78,
{8}6,6,{4}5,3b/8b,38,
{8}6,6,4,4,5,5,3,3,
{2}4-1[4:1]/5-8[4:1],{4},1x/8x,

{4}1b/2b,78,3h[4:1]/8,8,
{4}12,78,3h[4:1]/8,8,
{4}1h[8:1]/7h[8:1],3h[8:1]/8h[8:1],1h[8:1]/6h[8:1],28,
{8}6,5,{4}47,{8}3,4,{4}25,
{4}1bx/2bx,78,3h[4:1]/8,8,
{4}12,78,3h[4:1]/8,8,
{4}1h[8:1]/7h[8:1],3h[8:1]/8h[8:1],1h[8:1]/6h[8:1],28,
{8}5,5,{4}46,2x/8x,3b-6-1-4[4:3]/7b,

{1},
{2}3/5h[4:3],Ch[8:3],
E

MASTER

(120)
{1},
{2},{4},2x,

{1}3h[4:3]/5h[4:3],
{1}4h[4:3]/6h[4:3],
{2}3h[4:1]/7h[4:1],2h[4:1]/6h[4:1],
{4}3,2,1b,{8}8,8,

{4}17,{8}4,4,{4}35,{8}6,6,
{8}4,4,8-4[8:1],8,{4}3,{8}2,2,
{8}4,4,5,5,7,2x/8x,2x/8x,7,
{8}5,5,4,4,{4}36,1<5[8:1]/7h[4:1],
{4},2h[4:1]/8>4[8:1],,1V75[8:1]/7h[4:1],
{4},28,{8}37,37,,2,
{16}2h[16:3],,,3h[16:3],,,{8}4,{16}8h[16:3],,,7h[16:3],,,{8}6,
{8}6,5,4,35,{4}35,4>6[4:5],

{2}5h[4:1],5h[4:1],
{2}4h[4:1],{4}4,5<3[4:5],
{2}4h[4:1],4h[4:1],
{2}5h[4:1],{4}5,4>6[2:3],
{2}5h[4:1],5h[4:1],
{2}4h[4:1],{4}4,5,
{4}4/7h[4:1],5,2h[4:1]/5,4,
{8}36,36,27,27,{24}1,,1,8,,8,{4}1V35[4:1],
{2}7x,{8}78,56,34,1q6[8:1]/2^5[8:1],

{4}12,{8},47,{4}47,{8}8-4[8:1],8,
{8}2-6[8:1],2,7-3[8:1],7,{4}1h[4:1],6,
{4}7-5[8:1]/8-4[8:1],7x/8x,{8}3x,3x,,28,
{8}28,7,46,4h[8:1]/6h[8:1],{4},{8}1-5-7[4:1]*-5-3[4:1],1,
{4},{8},2x/8x,{4}2x/8x,{8}1-5[8:1],1,
{8}7-3[8:1],7,2-6[8:1],2,{4}8h[4:1],{8}3,3,
{8}28,28,{4}1x^4[8:1]/7x^4[8:1],,{8},18,
{4}18,{8}3-1[8:1]/6-8[8:1],36,{4},1x/8x,

{4}2h[8:1]/4h[8:1],5h[8:1]/7-1v8[4:1],4,3,
{4}2h[8:1]/4h[8:1],5h[8:1]/7-1v8[4:1],4,3,
{8}25,6,47,3,25,6,{4}47,
{8}38,4,37,4,38,4x/7x,{4}4x/7x,
{4}2h[8:1]/4h[8:1],5h[8:1]/7-1v8[4:1],4,3,
{4}2h[8:1]/4h[8:1],5h[8:1]/7-1v8[4:1],4,3,
{4}2-5[8:1]/1-5[8:1],12,{8}78,78,16,25,
{8}6,7,{4}1-4[8:1]/8-5[8:1],18,3bx/6bx,

{2}4h[4:1]/6h[4:1],{8}2,2,{4}4,
{2}3h[4:1]/5h[4:1],{8}7,7,5,5,

{4}8b<4[4:1],4>8[4:1],8<4[4:1],4>8[4:1],
{4}8,4,26,26,
{4}1>5[4:1],5<1[4:1],1>5[4:1],5<1[4:1],
{4}1,5,37,7^4[8:1]/8p3[8:1],
{4},1q6[8:1]/2^5[8:1],,7^4[8:1]/8p3[8:1],
{4},12,{8}38,38,4,5,
{4}4h[8:1]/6h[8:1],3h[8:1]/5h[8:1],26,{8}1,1,
{4}2h[8:1]/8h[8:1],1h[8:1]/7h[8:1],{2}2b/6b,

{24}3,,3,4,,4,{4}2,{24}6,,6,{8}4,{4}37,
{8}28,28,{24}3,,3,5,,5,4,,4,{8}6,{4}37,
{24}6,,6,5,,5,{4}7,{24}3,,3,{8}5,{4}26,
{8}78,78,56,34,12,12,{4}38,
{24}6,,6,5,,5,{4}7,{24}3,,3,{8}5,{4}26,
{8}17,17,{24}6,,6,4,,4,5,,5,{8}3,{4}26,
{24}3,,3,4,,4,{4}2,{24}6,,6,{8}4,{4}3h[4:1]/7-3[8:1]b,
{2}7x,{4},8b,

{24}2,,2,{8}4,{24}7,,7,{8}5,{4}4h[6:1]/8h[6:1],{8},{24}7,,7,
{24}5,,5,6,,6,{8}4,37,,12,34,56,
{4}8-4[8:1]/7-4[8:1],7x/8x,2-5[8:1]/1-5[8:1],1x/2x,
{4}7-3[8:1],1-5[8:1],8-4[8:1],3,
{24}7,,7,{8}5,{24}2,,2,{8}4,{4}1h[6:1]/5h[6:1],{8},{24}2,,2,
{24}4,,4,3,,3,{8}5,26,,78,56,34,
{4}2-5[8:1]/1-5[8:1],1x/2x,8-4[8:1]/7-4[8:1],7x/8x,
{4}12,{24}2,,2,{8}4,{24}7,,7,{8}5,{4}4^1[4:1]*^7[4:1],

{4},{8},26,{4}26,5^2[4:1]*^8[4:1],
{4},{8},37,{4}37,2-7[8:1],
{4}6-3[8:1],1^4[8:1],{8}7,7h[4:1],,E5,
{2}Cf,{4},{8}8-4-6[4:1]*-4-2[4:1],8,

{4},{8},1x/7x,{4}1x/7x,{8}6-3[8:1],6,
{8}2-7[8:1],2,8-4[8:1],8,{4}3,{8}2,2,
{8}17,17,{4}2xpp4[8:1]/8x^5[8:1],,{8},18,
{4}18,{8}3-1[8:1]/6-8[8:1],36,{4},1x/8x,

{8}2h[8:1]/4,4,5/7-1v8[4:1]b,5,{4}4,3,
{8}2h[8:1]/4,4,5/7-1v8[4:1]b,5,{4}4,3,
{8}25,6,47,3,25,6,{4}47,
{8}38,4,37,4,38,4b/7b,{4}4b/7b,
{8}2h[8:1]/4,4,5/7-1v8[4:1],5,{4}4,3,
{8}2h[8:1]/4,4,5/7-1v8[4:1],5,{4}4,3,
{4}2-5[8:1]/1-5[8:1],1x/2x,{8}78,78,16,25,
{4}3h[8:1]/4h[8:1],1-6[8:1]/2-5[8:1],1x/2x,3>4[1:1]/7bx,

{4},E7,,E6,
{4},E5,{8}2-6[8:1],6-2[8:1],{4},
E

Re:MASTER

(120){1}2p6^5v2[4:5],
{4},,,54,
6h[1:1]/4h[4:3],,,,
{16}5h[16:3],,,4h[16:3],,,3h[4:1],,,,5,,53,,,,
6h[1:1]/4,,,,,,,,5,,4,,4,,,,
5h[16:3],,,4h[16:3],,,3,,62,,{24},,1,{8}8-3[8:1],8,

8/2b,{24},,6,{8}5-1[8:1],5,8,{24},,7,{8}8,61,
5,64,3^8[8:1],8,7h[8:3],,6,4,
62,{24}3,,3,4,,,6,,6,{8}5,74,65,{24}3,,3,
4,,4,2,,2,{8}5-8[8:1]*-2[8:1],73,,,{24}7-4[8:1],,7,{8}8,
3h[24:5],{24},,1,{8}2-5[8:1],5,6h[24:5],{24},,8,{8}7,61,
{16}5/2h[16:3],,,3h[16:3],,,4^1[8:1],,82,,7-3[8:1],,,,7,,
1h[16:3],,,2h[16:3],,,3,,75,,{24}64,,3,4,,4,{8}2h[8:1],
{24}1,,1,3,,3,5,,5,{8}1,7h[4:1]/Cf,,1,82,

{4}7/3pp6[2:1],E8,E2,E1,7pp2[2:1],E4,E6,E5,
3pp6[2:1],E8,E2,8<1[2:1],C,,4-1[8:1],C,
1-3^4-6-4^3-1[4:3],E4,E8,C,8-6^5-3-5^6-8[4:3],E6,E2,C,
1v8[8:1],7p2[8:1],3^6[8:1],,
{8}1,2,3,4,65,78,1s5[4:1]/2,43,
,,,{24},,2,4,,4,3,,7,5,,5>6[4:1],6,,74,

,,3h[12:2],{8},,2,51,,8-4[8:1]/3,2-4[8:1],
8-6[8:1],2-6[8:1],8>7[4:1],2,8,,1,1,
5/8-4[8:1],3,81,{24},,2,4,,4,6,,6,8,,2,1,,1,
{8}2-7[8:1],7-2[8:1],5h[4:1],,,{24},,2,4,,4<3[4:1],3,,52,
,,6h[12:2],{8},,7,84,,6/1-5[8:1],7-5[8:1],
1-3[8:1],7-3[8:1],1<2[4:1],7,1,,8,8,
4/2b,7b/5,{24}12,,12,,,4,5,,,78,,78,,,5,4,,72,
{8}7V58[4:1]/2V41[4:1],,72,,,72,63,54,

8/2-5[8:1],4,8qq1[4:1]/2,7,4,,2-5[8:1],4,
8qq1[4:1]/2,7,4,4,,12,43,65,
7/8^5[8:1],1,82,1,7/8-4[8:1],1,82,1,
7-5[8:1]/8,7p3[8:1]/8,,,8,7/1b,7/1b,,
8/2-5[8:1],4,8qq1[4:1]/2,7,4,,2-5[8:1],4,
8qq1[4:1]/2,7,4,4,,12,43,65,
78,{24}2,,2,3,,3,{8}4^1[8:1],6,5,{24},,7,8,,8,
7,,,61,,61,,,2,8,,,7-2[8:1]/3-6[8:1],,73,{8},7b>5[8:7]/3b,,
{1},{24}6h[24:5],,,,,5h[24:4],,,,{8}4h[4:1],,5,5-1[8:1],5,

5bV74[8:3],,,,2-5[8:1],,4h[8:3],,,5,5-7[8:1]*-3[8:1],,,,6/4-7[8:1],,
4V25[8:3]/3,,,,7-4[8:1],,5h[8:3],,,4,4-7[8:1]*-1[8:1],,,,6h[8:1]/2h[8:1],,
E7/B6/B5,{24},,2,{8}1,12,E3/B3/B4,{24},,7,{8}8,78,
E7/B6/B5,{24},,2,{8}1,12,B6/C/B3,81,72,54,
73,B5/E2,62,E8/B4,73,,8,8,
62,E8/E4,73,E6/E2,8b/Cf/B3,,81,12,
{24}3,,4,3,,4,{8}3,3,{24}3,,4,{8}3,34,23,
{24}2,,3,2,,3,2,,3,2,,3,,,23,,,3,{8}2,43,
{24}6,,5,6,,5,{8}6,6,{24}6,,5,{8}6,65,{12}76,76,
{24},85,,,6,5,,,64,,{8}6h[8:1]/4h[8:1],,{24}5,4,,5,4,,5,
{8}2^5[8:1],8,1,8,6^3[8:1],7,8,7,
{24}52,,3,{8}4,{24}61,,7,8,,61,,,83,,,6,{8}5,81,
7^4[8:1]/2,1,8,1,3-7[8:1],2,8v5[8:1]*-3[8:1],,
{4}8,,,8b/1b,

{8}6h[4:1]/4,8,5h[4:1],8,4h[4:1],1,3,52,
4h[4:1]/3,1,5h[4:1],8,6,81,53,81,
6<2[4:1]/4,,2>6[4:1],,6<2[4:1],,2,,
4,,{24}73,,5,{8}4,{24}62,,4,{8}5,81,,
3h[4:1]/5,1,4h[4:1],1,5h[4:1],8,6,47,
5h[4:1]/6,8,4h[4:1],1,3,18,46,18,
3>7[4:1]/5,,7<3[4:1],,3>7[4:1],,7,,
5,,{24}28,,6,{8}5,{24}17,,3,{8}4,18,65,
4/3^6[2:1],,,B8,B1,,3,,3^6[2:1]b,,,B8,B1,,3,,
3^6[2:1],,,,C,,8z4[4:1],,
,,,,,{24},,3,4,,4V68-2[4:1],2,,51,

,,7h[12:2],{8},,8,84,,7/1-5[8:1],2-4[8:1],
1-7[8:1],2-6[8:1],1V35-7[4:1],2,1,,1,1,
4/2b,7b/5,{24}12,,12,,,4,5,,,78,,78,,,5,4,,72,
{8}7V51[4:1]/2V48[4:1],,72,,,72,63,54,
{24}8/2-5[8:1],,4,{8}3,8qq1[4:1]/2,7,4,,2-5[8:1],4,
8qq1[4:1]/2,7,4,4,,12,43,65,
7-4[8:1]/3,1,7/2-5[8:1],1,7-4[8:1]/2,8,72,8,
7-5[8:1]/8,7p3[8:1]/8,,,8,5/1b,7b/3,,
{24}8/2-5[8:1],,4,{8}3,8qq1[4:1]/2,7,4,,2-5[8:1],4,
8qq1[4:1]/2,7,4,4,,12,43,65,
78,{24}2,,2,3,,3,{8}4^1[8:1],62,5,{24},,7,8,,8,
7,,,61,,61,,,2,8,,,7-4[8:1]/3v8[8:1],,73,{8},7b/3b>3[4:5]*<3[4:5],,
{1},{8},,,,2p6[8:1],6^5v2[8:1],,,
E

名前:
コメント:

タグ:

+ タグ編集
  • タグ:
最終更新:2026年08月10日 23:19