アットウィキロゴ

モエチャッカファイア

アーティスト 弌誠「ゲーム『ゼンレスゾーンゼロ』エレン・ジョー 同人イメージソング」

BPM BASIC ADVANCED EXPERT MASTER Re:MASTER
163 3 6 10 13+ -

EXPERT MASTER Re:MASTER
譜面制作者 Luxizhel サファ太 -

BASIC


ADVANCED


EXPERT

(163)
{1},

{2}B6,B7,
{2}B8,B1,
{2}B2,B3,
{4}46,46,{2}3x/7x,

{8}2,2,{4}1,{8}7,7,{4}8,
{8}6,6,{4}5,{2}47,
{8}7,7,{4}8,{8}2,2,{4}1,
{8}3,3,{4}4,{2}25,
{8}6,6,4,4,5,5,{4}3,
{4}24,45,{2}57,
{2}7-5[4:1],1-3[4:1],
{2}8-4[4:1],2b,

{4}3,3h[2:3],4,4,
{4}2,2,4,4,
{4}6,6h[1:3],4,4,
{4}3bx,3bx,5bx,5bhx[2:3],
{1},
{2},{4}45,45,
{4}2h[4:1],4,7h[4:1],5,
{4}45,45,{2}2b/7b,

{4}18,{8}2,2,{4}4,35,
{4}46,{8}7,7,{4}5,57,
{4}56,56,34,3/4qq4[4:3]*pp4[4:3],
{1},
{4}35,{8}2,2,{4}4,34,
{4}45,{8}6,6,{4}5,4qq5[4:3]/7,
{1},
{4}B7,B2,{2}B4/E4/E5f,

{8}7b,7,{4}78,{8}2,2,{4}12,
{4}34,56,78,16,
{8}7,7,{4}57,{8}2,2,{4}24,
{4}78,56,{2}4b/8b,
{8}2,2,{4}13,{8}7,7,{4}68,
{4}56,34,12,38,
{2}2-7[4:1],6^3[4:1]b,
{4}1,1,{2}37,

{4}2x,2hx[2:3],,E4,
{4},E3,,E2,
{4}7,7h[2:3],,E6,
{4},E7,,E8,
{4}1,1h[2:3],,3,
{4},5,,6,
{12}7x,8x,7x,{4}8x,{12}2x,1x,2x,{4}1x,
{4}1bx/8,2bx/7,{2}3bx/6,

{4}34,{8}2,2,{4}1,18,
{4}78,{8}6,6,{4}5,47,
{4}56,{8}4,5,{2}3hx[4:1]/6hx[4:1],
{4}3bx/4bx,3bx/4bx,5bx/6bx,5bx/6bx,
{4}78,{8}7,7,{4}8,1p8[2:1]/8,
{2},{4},18,
{4}12,{8}2,2,{4}4h[4:1],3,
{4}25,47,{2}1h[4:1]/8h[4:1],

{2}1b/2b-5[8:1],7-4[8:1]/8,
{4}12,12,38,16,
{2}7-4[8:1]/8,1/2-5[8:1],
{4}78,78,{2}1b/6b,
{2}2-5[8:1]/1-5[8:1],8-4[8:1]/7-4[8:1],
{4}12,12,78,78,
{4}1h[4:1]/6,4,2/8h[4:1],5,
{4}57,24,{2}B1/B8/E1f/E2/E8,

{1},
{4},,,
{4},,,
{4}6h[2:1],5,5,
{4},56,56,
{4}3h[2:1],4,4,
{4},34,3p6[8:5]/4h[2:5],

{4},,,
{4},5,5q2[8:5],
{4},,,
{4},34,3v5-7[4:3]/4h[2:5],
{4},,,
{4},8,8-5-3[4:3],
{4},,,
{4},25,2h[2:5]/5V74[4:3],

{4},,,
{4},3,3V16[4:3],
{4},,,
{4},47,4V62-8V26-4[2:5]/7h[4:11],
{4},,,
{4},,,
{4},,,
{4},,,

{4}35,{8}2,2,{4}1,78,
{4}78,68,58,58,
{4}17,{8}8,8,{4}1,12,
{4}12,13,14,1/4>5[2:1],
{2},B7/B8/E8f,
{4}34,{8}2,2,{4}12,18,
{4}78,{8}7,7,{4}8,18,
{4}12,78,{2}B3/B4/B5f/B6,

{2}1-6[8:1]/2-5[8:1],7-4[8:1]/8-3[8:1],
{4}12,12,38,16,
{2}7-4[8:1]/8-3[8:1],1-6[8:1]/2-5[8:1],
{4}78,78,{2}2b/5b,
{2}4-8[8:1]/3-8[8:1],6-1[8:1]/5-1[8:1],
{4}34,12,78,56,
{4}2h[4:1]/8,4,1/7h[4:1],5,
{4}13,68,{2}3b/7b,

{4}1b/2b,{8}3,3,{4}4,56,
{2}6^1[4:1],2^5[4:1],
{4}7,{8}6,6,{4}5,34,
{2}3v8[4:1],7^4[4:1],
{4}3,{8}2,2,{4}1,78,
{1}7<2[2:1],
{2}2-5[4:1],7-4[4:1],
{4}3,12,{2}3b/7b,

{8}2x,3x,4x,5x,6x,7x,{4}8x,
{2}3x-6[8:1]/7x-2[8:1],{4}4bx/8bx,2x/6x,
E

MASTER

(163)
{1},
{4}4h[4:7]/5h[8:1],5h[8:1],5h[8:1],5h[8:1],5h[8:1],5h[8:1],5h[8:1],5h[8:1],
3h[8:1]/5h[8:1],3h[8:1]/5h[8:1],{8}45,36,{4}2/7-2[8:1],3x-6[8:1],5x-8[8:1],1x-4[8:1],8x,
{4}A3f/B3/E3/E4/A6/B6/E7/E6,{8}1,1,2-4[8:1]/5,6,{4}7h[4:1],{8}5,5,46,5,4/6-1[8:1],3x,3x,,{8}3,2,1,8,7-5[8:1]/1,2,{4}3h[4:1],{8}4,4,53,4,5/3-8[8:1],6x,6x,,
1bx,1,8,7,6-3[8:1]/4,3,{4}2,{8}1,1,5,46,3/7-4[8:1],,1,1,2,31,8h[4:1]/4,,5-1[8:1],5,7,6,{4}B2/E3,B6/E7,{8}B5/B4/E5,2x/7x,2x/7x-4b[8:1],,
{8}3bxh[8:1],,3h[8:1],,3h[8:1],,6/3h[8:1],5,4/3h[8:1],,5/3h[8:1],,4/2>4[8:1],,,,7h[8:1]/5,,5/6h[8:1],,6/5hx[8:1],,6/4qq4[4:1],,7/4pp5[4:1],,8,,D8/B8/E8/B7,,D6/B6/E6/B5,,
3h[8:1],4,3h[8:1],4,2h[8:1],4,2h[8:1],4,1h[8:1],4,1h[8:1],4,5/2v5[8:1],,6,6,7,7,5/8h[4:1],,B3/B4/B5,6,2,8,{4}B2/E3,1/B6/E7,{8}8,17,17,,
{16}2,4,{8}3,35,3,34,3,3/7-1[8:1],3,47,4,4/6-4[8:1],3,36,,2V86[4:1],,6V82[4:1],,4,,5,,4/5pp5b[4:1],,3/5qq4b[4:1],,2,,D1/B1/E1/B8,,D6/B6/E6/B5,,
{16}3,4,{8}2,28,2,24,2,21,2,2/8-4[8:1],2,28,2,3/6h[4:1],,5-3[8:1],5,7-5[8:1],7,1h[4:1],,B3/B4/B5,2,8-4[8:1],1,8>3[8:1],,8<5[8:1],,8/4w8[8:1],,,,
2b/6b,3,4/5-2[8:1],6,7/5-8[8:1],,75,,1-5[8:1],8,7-4b[8:1],6,5x/7x,,2q8[4:1],,8p2[4:1],,1,,8,71,2/6-1[8:1],,6-4[8:1],4,6<3[4:1],2,6/3>6[4:1],,4,,
3,2,1-4[8:1]/8-5[8:1],7,18,,7/2-8[8:1],,2-6[8:1],4,2V48[4:1],8,2,5,6,72,8-4[8:1]/3-1[8:1],4,83,,6/3-8[8:1],45,3/6-3[8:1],7,6/2b-6b[8:1],,2/8b>3b[8:1]*<5b[8:1],,8b,,,,
5,5,4/6h[4:7],,,,{32}E6,D6,,,,,,,{4},E7/B7,,E6/D6,{8}4,4,5/3h[4:7],,,,{32}E4,D4,,,,,,,{4},E3/B2,,E4/D4,{8}5,5,4/6h[4:7],,,,{32}E6,D6,,,,,,,{4},B6/B7,,8x,
{12}1,1,1,82,,,4,4,4,{4}3/5-1[8:1],1b-5[8:1],1x/2b<7[8:1],2x/3b,,
{16}7,5,{8}6,64,6,62,6,6/8>3[8:1],6,68,6,6/4v1[8:1]*v7[8:1],5,4,,A3/D4/E4/B3,,{16}6,5,6,5,6h[8:1],,4,5,{4}3-7[8:1],37,A1/E1/E2/A5/E6/E5,3/7pp7[4:1],5/7qq6[4:1],3,
{8}1,1,82,3,47,6,53,2,17,6,8/3>8[8:1],4,7,,16,27,3h[4:1]/8<5[8:1],1,,,24,24,1>4[8:1],8,{4}7h[2:1]/1<6[8:1],1,{32}1,2,3,4,5,6,7,8,{4}1x-5b[8:1],
1b/5b,{8}6/4-7[8:1],3,2/4-1[8:1],,24,,8-4[8:1],1,2-6b[8:1],3,4/2x,,7p1[4:1],,1q7[4:1],,8,,1,28,7/3-8[8:1],,3-5[8:1],5,3>6[4:1],8,3b/6<3[4:1],,5,,
6,7,8-5[8:1]/1-4[8:1],2,81,,2/7-1[8:1],,7-3[8:1],5,7V51[4:1],1,7,4,3,27,1-5[8:1]/6-8[8:1],8,16,,3/6-1[8:1],54,6/3-6[8:1],2,{4}3/7b-3b[8:1],7/1bw5b[8:1],1b>8[1:2],,,,,,,,,,,,
4/6h[4:3],5,5,2h[4:3],4,4,7h[4:3],5,5,2h[4:3],4,4,4<8[2:1],2,3,5>1[2:1],7,6,4<8[2:1],2,3,4>8[2:1],7,6,5<1[2:1],3,4,5>1[2:1],8,6,4<8[2:1],1,3,5h[4:3],8,8,
{8}7h[4:1],,6,6,{4}5h[4:1],4h[4:1],{8}3,3,{4}2h[4:1],3h[4:1],{8}4,4,{4}5h[4:1],6h[4:1],{8}7,7,{4}7,{8}5/7>2[8:3],,,2>5[8:3],,,5p7[8:3],,,7z3[2:1],,,2bx,,,,,,24,{16}3,5,3,5,3,5,3,6,2,7,
{8}1-4[8:1]*-6[8:1],82,1,,{16}37,,6,64,,3,3,4,4,2,,7,8,,16,,25,,3,34,,6,6,4,{8}5-2[8:1]*-8[8:1],64,5,,{16}37,,6,64,,2,2,4,4,3,,6,5,,28,,1,7,1,7,2x/6x,,,,{24}3,5,3,5,3,5,4>6[4:1],6,4,6,4,6,
{4}4b,,{16}7,8,,2,{8}1>4[8:1]*<6[8:1],28,{4}1,28,{8}34,34,45,45,56,56,4-2[8:1],7,{4}4/8-4[8:1],8/1-5[8:1],1/5w1b[8:1],,
{8}3b/7b,5,2-5[8:1]/6,4,12,8,4/7-1[8:1],,7/3V52-8b[8:3],2,3/7-4[8:1],6,7,,6x/2<6<2[2:1],,5,4,3,4,5,5,2/6-1[8:1],,6-4[8:1],4,6V83V15[2:1],2,{4}3/6b,4,
{8}3,2,1-4[8:1]/8-5[8:1],7,18,,2>5[8:1]/7,,2<7[8:1],8,2V48[4:1],4,2,5,6,72,8-4[8:1]/3-1[8:1],41,83,,6/3-8[8:1],45,3/6-4[8:1],7,6/3b-7b[8:1],,3 /1b<6[8:1],,{4}1b/5bw1b[8:1],,
{8}3b/7b,,2>5[8:1],1,8,7,6h[4:1],,5,4,5/7s3[8:3],8,3x,2x,2x,,1<6[8:1],2,3,4,5>2[8:1],6,7h[4:1],,1-7[8:1],1,5-1[8:1],5,2,3,48,7,2b/6b,,
7<4[8:1],8,1,2,3h[4:1],,4,5,4/2-6[8:1],1,8x/2x,,7<4[8:1],8,1-5[8:1]/7,2,18,,73,62,1>4[8:1]/5<8[8:1],48,{4}1bv6[8:1]/5bv2[8:1],1b/5b,3b/7b,15,
{24}2,4,2,4,2,4,2,4,2,4,3,4,3,4,3,4,3,4,2,4,2,4,2,4,{4}1b-5[8:1],1<6[8:1]/8b>3[8:1],1b/8w4b[8:1],8/B3/B4f/B5,
E

Re:MASTER


名前:
コメント:

タグ:

+ タグ編集
  • タグ:
最終更新:2026年03月13日 09:46