アットウィキロゴ

New York Back Raise

アーティスト saaa + kei_iwata + stuv + わかどり

BPM BASIC ADVANCED EXPERT MASTER Re:MASTER
160 3 7+ 12+ 13+ -

EXPERT MASTER Re:MASTER
譜面制作者 ロシェ@ペンギン 鳩ホルダー -

BASIC


ADVANCED


EXPERT

(160)
{1},
{1},
{4}B2/B3/B4/B5/B6/B7,1x>4[8:1]/8x<5[8:1],,,
{8}3,3,4,,3/5,,4h[4:3]/6pp5[2:1],,
{1},
{8}6,6,5,,4/6,,3/5,,
{8}2,2,4,,3/4,,5/6,,
{8}7,7,5,,5/6,,3/4,,
{8}2,2,4,,3/4,,5/6,,
{1}C1f/E3/E7,
{4}1h[8:1]/2h[8:1],2h[8:1]/3h[8:1],3h[8:1]/4h[8:1],2h[8:1]/3h[8:1],
{8}1,1,4,4,2h[4:1]/3h[4:1],,,,
{4}7h[8:1]/8h[8:1],6h[8:1]/7h[8:1],5h[8:1]/6h[8:1],6h[8:1]/7h[8:1],
{8}8,8,5,5,6h[4:1]/7h[4:1],,,,
{4}1h[8:1]/4h[8:1],1h[8:1]/4h[8:1],5h[8:1]/8h[8:1],5h[8:1]/8h[8:1],
{8}1/8,1/8,1/8,,4/5,4/5,4/5,,
{2}2h[4:1]/6h[4:1],1-5[8:1],
{1}B1/C1f/B2/B7/B8,
{4}8-6[8:1],1-5[8:1],8-6[8:1],1-5[8:1],
{4}8-6[8:1],1-5[8:1],8-6[8:1],1-5[8:1],
{4}8-6[8:1],1-5[8:1],8-6[8:1],1-5[8:1],
{8}8-6[8:1],,1-5[8:1],,8-6[8:1],,1,1,
{4}1-3[8:1],8-4[8:1],1-3[8:1],8-4[8:1],
{4}1-3[8:1],8-4[8:1],1-3[8:1],8-4[8:1],
{4}1-3[8:1],8-4[8:1],1-3[8:1],8-4[8:1],
{1}1>8[8:3],
{8}3/4,2,3/4,5,3/4,2,3/4,5,
{8}3/4,2,3/4,5,3/4,2,1/4,,
{8}5/6,7,5/6,4,5/6,7,5/6,4,
{2}5h[4:1]/6h[4:1],B5f/E6,
{4}7h[8:1]/8h[8:1],4h[8:1]/5h[8:1],1h[8:1]/2h[8:1],4h[8:1]/5h[8:1],
{16}5h[8:1]/7h[8:1],,,,2h[8:1]/4h[8:1],,,,3,4,3,4,3,,,,
{8}5/6,4/7,,3/4,2/5,,8h[1:1]/7-4[4:1]-6[8:1]<3[8:3],,
{1},
{8}1b/6b,,,3/6,4>1[8:1]/5<8[8:1],,,,
{8},E4/E6,B3/B6,B2/B7,E2/E8,,1/8,,
{4}2h[8:1]/4h[8:1],5h[8:1]/7h[8:1],3h[8:1]/4h[8:1],5h[8:1]/6h[8:1],
{8}E7f,E8f,E1f,E2f,E3f,,,,
{8}5h[4:1]/6h[4:1],,,5/7,7h[4:1]/5-3[8:1],,,,
{8}3h[4:1]/4h[4:1],,,2/4,2h[4:1]/4-6[8:1],,,,
{8}5h[4:1]/6h[4:1],,,5/7,7h[4:1]/5-3[8:1],,,,
{8}3h[4:1]/4h[4:1],,,2/4,2h[4:1]/4-6[8:1],,,,
{1}8bxh[1:3]/4bxv2[2:1]<6[4:9],
{1},
{1},
{1},
(240){4}4xh[2:1]/7xh[2:1],,,5/6,
{4}5/6,5/6,2xh[2:1]/5xh[2:1],,
{4},3/4,3/4,3/4,
{4}4xh[2:1]/7xh[2:1],,,B4/E4/B7/E8,
{4},2xh[2:1]/5xh[2:1],,,
{4}B2/E2/B5/E6,,,B7,
{4}B5,B3,B1,E7,
{4}E5,E3,E1,A7,
{4}A5,A3,A1,D7,
{4}D5,D3,B2,B4,
{4}B6,B8,E3,E5,
{4}E7,E1,A2,A4,
{4}A6,A8,D3,D5,
{4}D7,3h[4:1],4h[4:1],5h[4:1],
{4}6h[4:1],7,6,5,
{4}5/7,6h[4:1],5h[4:1],4h[4:1],
{4}3h[4:1],2,2,2/4,
{4}3h[4:1],4h[4:1],5h[4:1],6h[4:1],
{4}7,6,5,5/7,
{8}6,,2/7,2xV85[8:7]/7xV14[8:7],,,,,
{4},,,(128)3bxh[16:3]/6bxh[16:3],
{4}6h[16:3]/8h[16:3],5h[16:3]/7h[16:3],4h[16:3]/6h[16:3],2h[16:3]/3h[16:3],
{4}1h[16:3]/8h[16:3],3h[16:3]/5h[16:3],4h[16:3]/8h[16:3],3h[16:3]/6h[16:3],
{4}1h[16:3]/3h[16:3],2h[16:3]/4h[16:3],3h[16:3]/5h[16:3],6h[16:3]/7h[16:3],
{4}1h[16:3]/8h[16:3],4h[16:3]/6h[16:3],2h[16:3]/5h[16:3],3-5[8:1],
{4}1-7[8:1],2-6[8:1],5-3[8:1],7-1[8:1],
{4}6-2[8:1],5s1[4:1],,6-4[8:1],
{4}8-2[8:1],7-3[8:1],4-6[8:1],2-8[8:1],
{4}3-7[8:1],6-2[8:1],1w5[0.4688##1.5],(160),
{1},
{4},,,5h[4:15],
{2}E7,E3,
{2}E7,E3,
{2}E7,E3,
{4}E7,,E3,5,
{4}5/6,5,4/5,5,
{4}5/7,5,3/5,3/4,
{16}4/5,,,,5/6,,,,1x/8x,,,,2bx,1bx,2bx,1bx,
{16}2bx,1bx,2bx,1bx,2bx,1bx,2bx,1bx,2bx,,,,B1/E1/A1/D1f/E2/B8/E8/A8,,,,
{16},,,,7h[16:3],,,6h[16:3],,,5w1b[8:3],,5x,,,,
{16},,,,,,,,1/7,,2,1,2h[4:1],,,,
{16}4,,5,,7h[16:3],,,5,,,4/5,,3,4,3,4,
{16}3,,2/5,,1h[4:1],,,,8,,2/7,,3h[16:3],,,4,
{16},,2/5,,6h[16:3],,,5,,,4/7,,8h[16:3],,,6,
{16},,2/7,,1h[16:3],,,3,,,2/7,,6h[16:3],,,5,
{16},,3,4,3,,,5/7,,,1/8,,B1/C1f/B2/B3/B4/B5/B6/B7/B8,,,,
{4},,,2xh[4:1]/4x,
{16}1,,,,7x/8x,,7x/8x,,1bx/5bx,,,,2,4,2,,
{16}7,5,7,,1-3[8:1]*-5[8:1],,,,,,,,6,5,6,,
{16}3,4,3,,7,5,7,,2,4,2,,1/8,,1/8,,
{16}7,8,7,8,7-3[8:1],,,,8,,,,2,4,2,,
{16}1/4,,,,7,5,7,,5/8,,,,2-6[8:1],,2,,
{16}7-4[8:1],,7,,1-5[8:1],,1,,8,,,,7,5,7,,
{16}1/6,,,,2,4,2,,3/8,,,,7bx/8bx,,7/8,,
{8}1bx/2bx,1/2,3b-8b[8:1]/4b-7b[8:1],,,,1-5[8:1]/6-8[8:1],,
{16},,,,1/4,,2/7,,1/8,1/8,,2bxqq4[16:21]/7bxpp5[16:21],,,,,
{1},
{1},
{1},
E

MASTER

(160)
{1},,
{16}1x,1x,,,2x/8x,,,,6x/4x,,,7x/3x,,,5x/4x,,
3,,3h[16:3],,,1h[16:3],,,8h[16:3],,,6h[16:3],,,5,,
7x,,7x,,,1x/7x,,,8x/6x,,,2x/4x,,,5x/6x,,
6,,6h[16:3],,,8h[16:3],,,1h[16:3],,,3h[16:3],,,4,,
2,,2h[16:3],,,3h[16:3],,,4h[16:3],,,5,,,5/6,,
7,,7h[16:3],,,6h[16:3],,,5h[16:3],,,4,,,4/3,,
2,,2h[16:3],,,4h[16:3],,,5h[16:3],,,7h[16:3],,,8,,
{1}8q2>5[2:1],
{4}6<1[4:1],1>4[4:1],4<7[4:1],7>2[4:1],2>5[4:1],5<8[4:1],8-4[8:1]b,3,
3-8[4:1],8-5[4:1],5-2[4:1],2-7[4:1],7-4[4:1],4-1[4:1],1-5[8:1]b,6,
{8}8x/7x,6,5/3,2,2/4,5,6/4,7,7/1,6,5/4,3,8/2,3,6/4,7,
{16}1,8,1,8,1,8,1,8,
2,7,1,8,2-6[8:1],7,1,8,{4}2b,,,
E1/E8/B8/B1/E2,
{16}5b/4b,,
2,4,3,,6,4,5,,2,4,3,,6,4,5,,2,4,3,,6,4,5,,3,3,4,,6,6,5,,
7,5,6,,3,5,4,,7,5,6,,3,5,4,,7,5,6,,3,5,4,,6,6,5,,3,3,4,,
2,4,3,,6,6,5,,2,4,3,,6,6,5,,7,5,6,,3,3,4,,7,5,6,,3,3,4,,
3,4,2,,6,5,7,,3,4,1,,8/2,,{4}7-5-1[4:1]/3-5-1[4:1],,,
{4}1x-4[8:1],1/5-8[8:1],5/3-6[8:1],3/7-2[8:1],7/1-4[8:1],1/5-8[8:1],5/3,4,
{16}8-3[8:1]/4,7/3,6/2,,
{4}8x/6x-1[8:1],6/3x-8[8:1],3/7,5/1p8-6>2[8:6]b,,,,7x-4[8:1],
7/3-8[8:1],3/6-1[8:1],6/2-5[8:1],2/8-4[8:1],2/8,1/5,
{16}1-5[8:1]/5,2/6,3/7,4/8,1,,,,
2h[8:1],,{32}1x,8x,7x,6x,{8}5x,3,7h[8:1],{32}8x,1x,2x,3x,{8}4x>5[4:3],6,{1},
{16}8/1,,7b/3b,,,,6,5,7-5-1[8:2],,4-2[8:1],,,,,,,,
8,,7/2,,3,5,4-1[8:1],,4-7[8:1],,,,,,
8b,,,,A6/D6/E6,,A3/D4/E4,,B5/B4/E5,,1,8,1,,7/2,,
6,4,5,3,4-8[8:1],,4,,2-6[8:1],,2,,7h[4:1],,,,
1,,6b/2b,,,,3,4,2-6[8:1],,1-5[8:1],,,,,,,
3,,3,4,,3/4,,5-8[8:1],,5-2[8:1],,,,,,
1b,,1b,,,,7/3,,4,6,4,6,3,7,3,7,2,8,2,8,1,8,1,8,,,
7xh[8:1]/2xh[8:1],,,,5xh[8:1]/4xh[8:1],,,,
{32}5xb/4xb,3x/6x,7x/2x,1x>8[32:97]/8x<1[32:97],,,,,,,,,{1},,,{2},
{16}1h[16:5]/2h[16:5],,,,,,,,
{12}2h[64:5]/4h[64:5],,4h[64:5]/5h[64:5],,7h[64:5]/5h[64:5],,
{16}8h[16:5]/7h[16:5],,,,,,,,
{12}7h[64:5]/5h[64:5],,4h[64:5]/5h[64:5],,4h[64:5]/2h[64:5],,
{16}1h[16:5]/2h[16:5],,,,,,,,
{12}4h[64:5]/3h[64:5],,5h[64:5]/6h[64:5],,7/8,,1,1,7,7,3,3,5,5,4b/5b,,
2h[4:1],,1,8h[4:1],,1,2h[4:1],,1,8h[6:1],,1,,7/8,,
7h[4:1],,8,1h[4:1],,8,7h[4:1],,8,1h[6:1],,8,,1/2,,
3h[4:1],,2,1h[4:1],,2,3h[4:1],,2,1h[6:1],,8,,7/8,,
6h[4:1],,7,8h[4:1],,7,6h[4:1],,7,8h[6:1],,1,,1/2,,
2h[4:1],,3,4h[4:1],,3,2h[4:1],,3,4h[6:1],,5h[6:1],,6,5,
7h[4:1],,6,5h[4:1],,6,7h[4:1],,6,5h[6:1],,4h[6:1],,3,4,
2h[4:1],,8,8h[4:1],,6,6h[4:1],,4,4h[4:1],,2,2h[4:1],,8,8h[4:1],,1,1,
(102)B7/B2/Cf,,,,,,,
(160){64}8,,,,,8,,,,,,,,,,5/6h[4:1],,,,,,,,,,,,,,,,7,,,,,7,,,,,,,,,,7/8,,,,,,,,,,,,,,,2/3,,,,,,,,,,,,,,5h[4:1]/6,,,,,,,,,,,,,,,,
7,,,,,7h[64:19],,,,,,,,,8,,,,,,,,,,8,,,,,,,,,,,,,,,
{80}8/7,,,,,,,,6/5,,,,,,,,4/3,,,,,,,,2/1,
{64},,,,,,,,,,1,,,,,1,,,,,,,,,,4/3h[4:1],,,,,,,,,,,,,,,,2,,,,,2,,,,,,,,,,1/2,,,,,,,,,,,,,,,7/6,,,,,,,,,,,,,,3-5^6[4:1]/4,,,,,,,,,,,,,,,,6-8^1[4:1],,,,,,,,,,,,,,,,1-3^4[4:1],,,,,,,,,,,,,,,,
4^7[16:3]*s8[16:3],,,,,,,,,,,,,,,,,,,,,,,,,,,,,,,,,,,,,
1,,,,,1,,,,,,,,,,4/3h[4:1],,,,,,,,,,,,,,,,2,,,,,2,,,,,,,,,,1/2,,,,,,,,,,,,,,,7/6,,,,,,,,,,,,,,4h[4:1]/3,,,,,,,,,,,,,,,,
2,,,,,2h[64:19],,,,,,,,,1,,,,,,,,,,1,,,,,,,,,,,,,,,
{80}1/2,,,,,,,,3/4,,,,,,,,5/6,,,,,,,,7/8,
{64},,,,,,,,,,8,,,,,8,,,,,,,,,,5/6h[4:1],,,,,,,,,,,,,,,,7,,,,,7,,,,,,,,,,7/8,,,,,,,,,,,,,,,2/3,,,,,,,,,,,,,,
6x,,,,,5,,,,,6,,,,,3x,,,,,4,,,,,3,,,,,7x,,,,,8,,,,,7,,,,,2x,,,,,1,,,,,2,,,,,
6x,,,,,3,,,,,7,,,,,2x,,,,,,,,,,,,
1xbpp6[1:1]/8xbqq3[1:1],
E1,B8/B1,B7/B2,E7/E3/Cf,A6/E6/B5/B4/E4/A3,,,,,,,,,
{1},{4},,,
{32}
3h[1:2],,,,,,,,E4,A4,,,,,,,,,,,,,,,E6,A5,,,,,,,,,,,,,,,E4,A4,,,,,,,,,,,,,,,E6,A5,,,,,,,
6h[1:2],,,,,,,,E6,A5,,,,,,,,,,,,,,,E4,A4,,,,,,,,,,,,,,,E6,A5,,,,,,,,,,,,,,,E4,A4,,,,,,,
3h[1:1],,,,,,,,4,,,,,,,,,,,,,,,,4,,,,,,,,
6h[1:1],,,,,,,,5,,,,,,,,,,,,,,,,5,,,,,,,,
4,,,,3,,,,6,,,,7,,,,3,,,,2,,,,7,,,,8,,,,
1bx,,1bx,,1bx,,1bx,,1bx,,1bx,,1bx,,1bx,,1bx,,1bx,,1bx,,1bx,,8bxv5[12:1]/2bxv4[12:1],,,,,,,,
{4}Cf,,
{16}2/5,,3,4,,6,5,,7/4,,6,5,,3,4,,5/4-7[8:1]*-1[8:1],,,,,,,,
8,,8,,1/7,,,,7/8,,8,7,,1,8,,1/2,,1,2,,8,1,,8-4[8:1]/7-4[8:1],,,,,,,,
2,,2,,1/2,,,,1/3,,8,2,,7,1,,8/6,,1,7,,2,8,,8/3,,2,1,,7,8,,
6,5,6,4,6,3,6,2,6,1,6,8,6-3[8:1],,,,{32}D7,E7,Cf,E3,{8}D3,,,,,,,
8xh[8:3]/1xh[8:3],,,,8x/1x,8x/1x,
7b-4[8:1]/2b,,
7/2-6[8:1],1,2/5-1[8:1],4,5/3-8[8:1],2,3/7-2[8:1],6,7/1^4[8:1],8,
1/5^8[8:1],6,5/3-6[8:1],2,3/7-4[8:1],8,7/1-4[8:1],2,1/5,6,7-4[8:1]/3-8[8:1],8/4,7b/3b,,
1-5[8:1]/5,2,1/8-3[8:1],7,8/4-8[8:1],5,4/6-2[8:1],7,6/3-8[8:1],4,3/7^4[8:1],6,7/1s5[8:1]b,8,1,,
{16}3/6,,2,4,3,4,1b,,8/2,,7,5,6,5,8b,,
{32}1,,8,,1,,8,,1,2,3,4,8,7,6,5,
{8}1w5[8:1]b,7/3,1b,,
7-3[8:1]/4-1[8:1],,,,2/4,7/5,
{16}1pp5[4:7]b/8qq4[4:7]b,2/7,,1b/8b,
E

Re:MASTER


名前:
コメント:

タグ:

+ タグ編集
  • タグ:
最終更新:2026年03月29日 15:36