BASIC
ADVANCED
EXPERT
MASTER
(156)
{2},B3/B4/B5/B6/Cf,
{4}1-5[8:1]/8-4[8:1],18,{16}36,,,18,,,{32}1,2,3,4,5,6,7,8,1,2,3,4,5,6,7,8,1,2,3,4,
{2}5/Cf,{1},{16}2,4,,45,,7,5,,18,,,34,,,2b-5[8:1]/8b,,
{8},6-1[8:1],6,3-8[8:1],3,7-4[8:1],7,4,3,2-7[8:1],2,6-3[8:1],6,1-5[8:1],1,
5,6,7-4[8:1],7,3-8[8:1],3,5,6,6,{16}57,57,,,24,24,,,12,,,56,,,7b-4[8:1]/1b,,
{8},3-8[8:1],3,6-1[8:1],6,2-5[8:1],2,5,6,7-2[8:1],7,3-6[8:1],3,8-4[8:1],8,
4,3,2-5[8:1],2,6-1[8:1],6,4,3,3,{16}42,42,,,75,75,,,18,,,4qq4[16:5]/5pp5[16:5],,,4x/5x,,
{2},{8}D6/E6/B5/B4/E4/D4,,,2h[1:2],
,4,{4}4,3,1,1-4[8:1],1,{8},5,6,7h[1:2],,5,{4}5,6,8p5[8:3],{2},{8},4,3,2h[8:9],
,4,{4}4,1,3pp3[4:1]b,,{8}1,1,,2x,4x/5x,7hx[8:7],,6,{4}6,8,5,4p5[4:1]/5q4[4:1],,,3x/6x,
{16}2-8[8:1]/4,,,2/7qq3[16:5],,,{8}7,,1,1,,{16}7-1[8:1]/5,,,7/2pp6[16:5],,,{8}2,,8,8,,
7<3[4:1],1,1,,2>6[4:1],8,8V26-4[16:7],{2},{8}3h[8:3],,5,5,,
{16}5-8[8:1]/7,,,5/2pp6[16:5],,,{8}2,,8,8,,{16}4-1[8:1]/2,,,4/7qq3[16:5],,,{8}7,,2,1,1^4qq3[8:3]b,
,8,8,,6,,17,17,{16}2,4,,18,,7,5,,{4}36,8-5[8:1]*-6[8:1],
8b-2[8:1]*-3[8:1],8b-4[8:1]b,8b,{8}5,6,7^2[8:1],3^6[8:1],7,3,,8,{4}1-3[8:1]*-7[8:1],
1b-4[8:1]*-6[8:1],1b-5[8:1]b,1b,{8}4qq1[8:3]/6pp1[8:3],46,{2},{8},7-3[8:1]*^4[8:1],18,,
,2-6[8:1]*^5[8:1],81,,,7-3[8:1]*^4[8:1],18,,,2-6[8:1],81,,{16}5bh[16:3],,,6bh[16:3],,,8b,,
{8},12,3,46,7,18,2,34,{4}2-6[8:1]/5-8[8:1],2x/5x,{8},2,{4}1-5[8:1],
1b-3[8:1]*-7[8:1],1bw5[8:1]b,1b,{8}46,7,8^5[8:1],1pp4[8:3],8,1,,7,{4}8-4[8:1],
8bv2[8:1]*v6[8:1],8bw4[8:1]b,8b,{8}3pp8[8:3]/5qq8[8:3],26,{2},{8},2pp4[8:1]*-6[8:1],18,,
,7qq5[8:1]*-3[8:1],81,,,2pp4[8:1]*-6[8:1],18,,,7-3[8:1],81,,{16}4bh[16:3],,,3bh[16:3],,,1b,,
{8},87,6,53,2,81,7,65,{4}7-3[8:1]/4-1[8:1],7x/4x,{8},14,14,,
{16}2,4,2,4h[16:9],{4}1,1,1,{16}7,5,7,5,7,,2,4,2-6[8:1],4,2,,{4}7^2[4:1],
4,3p6[4:1],4,5pp4[8:3],4,3>6[4:1],6,5-8[4:1],3,4-1[4:1],6,5-1[4:1],
3,2>8[4:1]b,8^1-5[16:3]b,{8},{1}6bhx[8:11]/B5f,
{24}2x,3x,4x,5x<4[4:1]b,,,2x,3x,4x,{4}5x,,5x-1[8:1],
5b-7[8:1]*-3[8:1],5bw1[8:1]b,5b,{8}82,3,4^1[8:1],5pp8[8:3],4,5,,3,{4}4-8[8:1],
4bv6[8:1]*v2[8:1],4bw8[8:1]b,4b,{8}7pp4[8:3]/1qq4[8:3],62,{2},{8},6pp8[8:1]*-2[8:1],54,,
,3qq1[8:1]*-7[8:1],45,,,6pp8[8:1]*-2[8:1],54,,,3-7[8:1],45,,{16}8bh[16:3],,,7bh[16:3],,,5b,,
{8},43,2,17,6,45,3,21,{4}3-6[8:1]/8-4[8:1],3x/8x,,7b-5[8:1]/8b-2[8:1],
7b-3[8:1]/8b-4[8:1],7b/8b,{16}25,,,57,,,78,,{4}7x<2[4:1]/8xp1[4:1],,,1b-6[8:1]/2b-5[8:1],
{2}1b/2b,{16}35,,,18,,,{32}8,7,6,5,4,3,2,1,8,7,6,5,4,3,2,1,8,7,6,5,
{2}4/Cf,{1},{16}7,5,,45,,2,4,,18,,,56,,,1b/7b,,
,,8,,1,,2,,35,,6,5,,7,8,,2,2,1,,34,,5,,46,,7,5,,2,4,,
6,6,5,,78,,1,,{4}2^5[8:1]/4h[4:1],2x,{16}78,78,,,12,12,,,57,,,34,,,8b/2b,,
,,1,,8,,7,,64,,3,4,,2,1,,7,7,8,,65,,4,,53,,2,4,,7,5,,
3,3,4,,21,,8,,{4}7^4[8:1]/5h[4:1],7x,{16}21,21,,,87,87,,,45,,,3h[16:3]/6h[16:3],,,,,
2b/8b,,,6b/7b,,,3b/4b,,,4b/6b,,,2b/5b,,,,1,8,,36,,2,4,,18,,57,,2,4,,,
{4}1x-5[8:1]/2x-6[8:1],1b/2b,,,{24},,,E6,B5,B4,{4}E4,,,{1},,,,E
Re:MASTER
- MASTER譜面を追加しました。修正等ありましたらよろしくお願いします。 -- けもがみ (2026-08-24 22:59:24)
最終更新:2026年08月24日 22:59