アットウィキロゴ

踊

アーティスト Ado

BPM BASIC ADVANCED EXPERT MASTER Re:MASTER
128 2 6 8 11 13

EXPERT MASTER Re:MASTER
譜面制作者 はっぴー 緑風 犬三郎 あまくちジンジャー

BASIC


ADVANCED


EXPERT

(128)
{1},
{2}3/6h[1:1],8,
{2}3h[1:1],1,
{2}6h[1:1],8,
{2}3h[1:1],1,
{4}6x,47,3x/6x,25,
{4}3x/6x,36,1x/8x,18,
{4}2,34,7,56,
{4}2,34,7,56,
{4}3h[4:1],1h[4:1],8h[4:1],6p4[2:1],
{2}C,{4},1b,

{2}2-6[4:1],{4}7,7,
{2}6-2[4:1],{4}1,1,
{2}2>5[4:1],6<1[4:1],
{2}2>5[4:1],{4}7,18,
{2}7-3[4:1],{4}2,2,
{2}3-7[4:1],{4}8,8,
{2}7-4[4:1],3-8[4:1],
{2}6-1[4:1],{4}3,45,

{4}7h[1:1],5,8,8,
{4}2h[1:1],4,1,1,
{4}7,7,18,1x/8x,
{4}2bx/7bx,2bx/7bx,45,36,
{4}7,46,2,35,
{4}8,57,1,24,
{4}8h[4:1],1b,{2}2-4[8:1]/7-5[8:1],
{8}1x/8x,1x/8x,{4}1x/8x,27,45,

{4}6,6h[4:7],5,5,
{4}8x,8x,5,4,
{4}3,3h[2:3],4,4,
{4}1,1,4,5bx,
{4}6x,57,3x,24,
{4}5x,46,2x/8x,28,
{4}3,24,6,57,
{4}3,24,5,5h[4:1],

{4}4h[4:1],3h[4:1],2h[4:1],1h[4:1],
{4}8h[4:1],7h[4:1],6h[4:1],5,
{8}4x,4x,6x,6x,2x,x2x,8x,8x,
{2}1bhx[2:1],{4}8b,36,

{2}1-5[8:1]/2-4[8:1],7-5[8:1]/8-4[8:1],
{2}1-5[8:1]/2-4[8:1],7-5[8:1]/8-4[8:1],
{4}12,47,78,25,
{8}6,6,{4}4,35,2b/6b,
{2}7-5[8:1]/8-4[8:1],1-5[8:1]/2-4[8:1],
{2}7-5[8:1]/8-4[8:1],1-5[8:1]/2-4[8:1],
{4}78,34,12,56,
{2}4h[2:1],Cf,

{4}1x/8x,{8}7,7,{4}5,46,
{8}3,3,{4}5,24,57,
{2}8<5[8:1],4>1[8:1],
{2}8<5[8:1],4>1[8:1],
{4}8x,2h[4:1],{8}4,{16}24,,,45,,,
{4}57,7h[4:1],{8}5x,{16}5x/7x,,,4x/5x,,,
{2}2x/4-8[8:1],1-5[8:1],
{2}8<5[8:1],1b,

{4}B7,B8,B1,B2,
{4}B3,B4,B5,B6,
{4}A7/E8,A8/E1,A1/E2,A2/E3,
{4}A3/E4,A4/E5,A5/E6,A6/E7,
{8}1,1,1,1,7,7,7,7,
{8}2,2,2,2,8,8,8,8,
{8}1,1,2,2,3,3,4,4,
{8}5,5,6,6,7,7,{4}8h[4:1],

{1}Cf,
{4}36,{8}45,45,{4}45,1bx/8bx,
{4}3h[4:1]/4,1,5/6h[4:1],8,
{8}34,34,{4}25,{8}46,46,{4}3b/7b,
{2}1-6[8:1]/2-5[8:1],7-4[8:1]/8-3[8:1],
{2}1-6[8:1]/2-5[8:1],7-4[8:1]/8-3[8:1],
{4}1/2h[4:1],4,7h[4:1]/8,5,
{8}34,34,{4}25,18,2bx/7bx,

{2}3-1[8:1]/5-8[8:1],4-1[8:1]/6-8[8:1],
{2}3-1[8:1]/5-8[8:1],4-1[8:1]/6-8[8:1],
{4}34,12,78,56,
{4}34,{8}1x/8x,1x/8x,1x/8x,1x/8x,{4}2x/7x,
{2}4-1[8:1]/6-8[8:1],3-1[8:1]/5-8[8:1],
{2}4-1[8:1]/6-8[8:1],3-1[8:1]/5-8[8:1],
{4}56,78,12,34,
{4}45,5-1[4:1]/4-8[4:1],{2},

{4}1h[4:1],8h[4:1],7h[4:1],6h[4:1],
{4}5h[4:1],4h[4:1],{2}3-7[8:1],
E

MASTER

(128)
{1},
{2},{4}18,45,
{4}3/6>1[8:3],4,,{8},3hx[8:1]/5hx[8:1],
{8},4hx[8:1]/6hx[8:1],,35,{4}3/5h[4:1],4,
{4}3/6>1[8:3],4,{2},
{8}3,3,6,6,45,45,{4}36,
{4}8bx-5[8:1],4,3bx^6[8:1],7,
{2}5bxqq5[4:1]b*pp5[4:1]b,{4},46,
{4}3<8[8:3],5,{2},
{8}4,4,5,5,3x,3x,{4}6x,
{4}4h[8:1]/6h[8:1],3h[8:1]/5h[8:1],4h[8:1]/6h[8:1],3h[8:1]/5h[8:1],
{8}B6/E6,B2/B3,{4}B7/E8,1-5[8:1],6b,

{8}7,7,5,5,46,37,{4}37,
{8}2,2,{4}3/4^7[8:1],{8}1,1,{4}1x,
{4}2h[8:1]/8h[8:1],1h[8:1]/7h[8:1],{8}26,26,{4}26,
{4}1h[8:1]/7h[8:1],2h[8:1]/8h[8:1],{8}37,37,{4}37,
{8}2,2,4,4,35,26,{4}26,
{8}7-3[8:1],7,1-5[8:1],1,8,8,{4}8x,
{4}4h[8:1]/6h[8:1],3h[8:1]/5h[8:1],4h[8:1]/6h[8:1],3h[8:1]/5h[8:1],
{2}2-7[8:1]/6-3[8:1],{8}7x/8x,7x/8x,{4}7x/8x,

{8}47,36,{4}2^5[8:1]/5^8[8:1],,5x/8x,
{8}47,36,{4}2^5[8:1]/5^8[8:1],,5x/8x,
{4}4-1[8:1],6,{2}7-4[8:1]/1-4[8:1],
{8}4,5,6,7,28,28,{4}37,
{4}46,{8}17,2,{4}34,{8}18,7,
{4}56,{8}18,2,{4}36,4-1[8:1]/5-8[8:1],
{4},1hx[2:1]/8x,,8,
{8}45,45,{4}36,{2}1v4[8:1]/8-5[8:1],

{4}8<1[8:3],1b,,{8},1hx[8:1]/7hx[8:1],
{8},2hx[8:1]/8hx[8:1],,17,{4}1h[4:1]/7,8,
{4}2<5[8:3]/7,8,{2},
{8}7,7,2,2,18,18,{4}27,
{4}1bx-4[8:1],5,6bx^3[8:1],2,
{2}4bxqq4[4:1]b*pp4[4:1]b,{4},28,
{4}7>4[8:3],1,{2},
{8}8,8,1,1,7x,7x,2x,2x,

{4}3h[8:1]/5h[8:1],4h[8:1]/6h[8:1],3h[8:1]/5h[8:1],4h[8:1]/6h[8:1],
{4}2h[8:1]/5h[8:1],4h[8:1]/7h[8:1],2h[8:1]/5h[8:1],4h[8:1]/7h[8:1],
{8}3x/5x,6,4x/7x,3,2x/5x,6,3x/7x,2bx,
{12}1x/8x,1x/8x,1x/8x,{4}8x-4[8:1]/1x-5[8:1],,3b/6b,

{8}37,37,2^5[4:1]/6^1[4:1],26,{2},
{8}37,37,2^5[4:1]/6^1[4:1],26,{2},
{4}1-5[8:1]/2-4[8:1],1x/2x,7-5[8:1]/8-4[8:1],7x/8x,
{8}3,2,18,7,56,4,{4}35,
{8}26,26,3^8[4:1]/7^4[4:1],37,{2},
{8}26,26,3^8[4:1]/7^4[4:1],37,{2},
{4}1-5[8:1]/2-4[8:1],1x/2x,7-5[8:1]/8-4[8:1],7x/8x,
{2}Ch[2:1]f,B2/B3/B6/B7,

{4}1b/8b,{8}5,7,5,3,8,8,
{8}2,2,5,7,5,3,{4}25,
{8}1b,1,7,7,4,2,4,6,
{8}1,1,7,7,4,2,{4}4,
{4}1b/6b,{8}3,4,5,{16}6bhx[16:3],,,7bhx[16:3],,,
{4}8bx,{8}4,4,5,{16}6bhx[16:3],,,7bhx[16:3],,,
{4}8bx,{8}1,1,2,{16}2bhx[16:3],,,3bhx[16:3],,,
{4}4bx,{8}5,5,{4}4,27,

{4}B3/B4/A3,A6/B6/B5,A2/B1/E2,A7/B8/E8,
{4}B3/B4/A3,A6/B6/B5,A2/B1/E2,A7/B8/E8,
{4}B3/B4/A3/E4,A6/B6/B5/E6,A2/B1/B2/E2,A7/B7/B8/E8,
{4}B3/B4/A3/E4,A6/B6/B5/E6,A2/B1/B2/E2,A7/B7/B8/E8,
{8}3x,3x,6,6,4,4,5,5,
{8}2,2,6,6,4,4,7,7,
{16}1,8,1,8,1,8,1,8,2,7,2,7,2,7,2,7,
{16}1,8,1,8,1,8,1,8,{4}1-5[8:1],1x,

{2}8b,{8},3h[4:1]/5h[4:1],{4},
{4}35,{8}46,46,{2}6-1[8:1]/4-1[8:1],
{4}1-6[8:1]/2-5[8:1],1x/2x,7-4[8:1]/8-3[8:1],7x/8x,
{8}3,2,18,7,56,4,{4}35,
{8}26,26,3^8[4:1]/7^4[4:1],37,{2},
{8}26,26,3^8[4:1]/7^4[4:1],37,{2},
{4}1-6[8:1]/2-5[8:1],1x/2x,7-4[8:1]/8-3[8:1],7x/8x,
{8}2,2,{4}1-4[8:1]/8-5[8:1],1x/8x,2b/7b,

{8}48,48,3^6[4:1]/7^2[4:1],37,{2},
{8}48,48,3^6[4:1]/7^2[4:1],37,{2},
{8}8-4[8:1],8,1-3[8:1],1,7-5[8:1],7,2,2,
{4}34,{8}2x/5x,3x/6x,4x/7x,3x/6x,{4}2x/5x,
{8}15,15,2^7[4:1]/6^3[4:1],26,{2},
{8}15,15,2^7[4:1]/6^3[4:1],26,{2},
{4}5-2[8:1]/6-1[8:1],5x/6x,3-8[8:1]/4-7[8:1],3x/4x,
{2}Chf[2:1],B3/B4/B5/B6,

{8}1,2h[4:1],,1,8,7h[4:1],,8,
{8}1,2h[4:1],,1,{4}8-4[8:1],1b/8x,
E

Re:MASTER

(128)
{2},{8}27,27,{4}8-4[8:1]/1v3[8:1],

{2}8qq4[2:1],{4},{8},E3/B3/E6/B5,
{8}1,E4/B4/B6/E7,8,1,28,37,46,5,
{4}6q3[4:1],3p6[4:1],{2},
{8}35,3,46,6,56,4h[4:1]/5,,3h[8:1],
{4}1bpp1[16:3],{8}4,5,{4}6b^3[8:1],{8}B7,B2,
{2}4bxqq4[4:1]b*pp4[4:1]b,{4},3x/5x,
{4}6V85[4:1],5qq1[8:3],{2},
{4}2h[4:1],8h[4:1],6h[4:1],4h[4:5],
{4}5h[8:1],5h[8:1],5h[8:1],5-2V48[8:3],
{2},{8}7h[8:3],{24}B6,B5,B4,{4}B3,

{8}28,{16}3,3,{8}4,3,7,1h[4:1],{4}3,
{8}28,2,34,3,12,2,{4}3x/7x,
{8}6h[4:1],8,5h[4:1],8,4,3,25,4,
{8}3h[4:1],1,4h[4:1],1,5,6,{4}47,
{8}17,6,6/B5/E5,6,2,8h[4:1],{4}E7/B6,
{8}17,7,6/B5/E5,6,78,7,{4}2x/6x,
{8}1pp1[16:3],5,6,7,8-5[8:1],1,2,3s7[4:1],
{2}3h[8:3],{8}8,8,{4}2x/6x,

{8}3^6[8:1],{16}8,8,{8}3,7h[4:1],8,1,{4}2x/6x,
{8}7^2[8:1],{16}4,4,{8}7,3h[4:1],4,5,{4}2x/6x,
{8}3-6[8:1],{16}1,1,{8}3,8,{4}6-3[8:1]/7-2[8:1],67,
{8}1w5[8:1],28,{4}1,{8}37,46,{4}E3/B3/E4/A3/A7/E8/B7/E7,
{8}17,26,{16}5,3,4,2,{8}8,37,{16}4,6,5,7,
{8}1,34,8,56,1,34,{4}5^2[8:1]/8^5[8:1],
{4},{8}C,1,{16}1,,,4,{8}5,7,
{8}6-2[8:1]/5-1[8:1],47,{4}56,{8}38,56,{4}8-4[8:1]/3v1[8:1],

{4}3b/8bqq4[2:1],8x,,{8},E3/B3/B5/E6,
{8}1,E4/B4/B6/E7,8,1,28,37,46,35,
{4}2q7p2[2:1]/4,8h[2:1],{2},
{8}46,6,35,3,34,4/5h[4:1],,6h[8:1],
{4}8bqq8[16:3],{8}5,4,{4}3b^6[8:1],{8}B2,B7,
{2}5bxqq5[4:1]b*pp5[4:1]b,{4},34,
{4}5x-8-6[4:1]/1x-5[8:1],1x/5xqq1[8:3],{2},
{4}6h[4:1],4h[4:1],2h[4:1],8h[8:3],

{4}6h[8:5],{8}5,5,{4}5h[8:5],{8}4,4,
{4}4h[8:5],{8}3,3,{4}3h[2:1],{8}2,2,
{8}2h[8:1],1h[8:1],8h[8:1],7h[8:1],6h[8:1],5h[8:1],4,3x/4x,
{12}25,25,36,{8}47,{24}7x,6x,5x,{8}2x/4x,18,{4}3b/7b-3[8:1],

{8}2-5[8:1]/7,1,2/8-4[8:1],7,1-5[8:1]/8,2,1/6-2[8:1],7,
{8}3-8[8:1]/6,4,3/6<3[4:1],5,{4}46,{12}Cf,,2,
{12}8w4[8:1],1,7,8,,6,4w8[8:1],5,3,{4}4,
{16}2,1,2,1,{8}38,56,34,18,{4}2b-6[8:1]/6b,
{8}2/7-4[8:1],8,1-5[8:1]/7,2,1/8-4[8:1],7,3-7[8:1]/8,2,
{8}3/6-1[8:1],5,3>6[4:1]/6,4,{4}35,{12}Cf,,7,
{12}1z5[4:1],8,2,{4}1,{12}4,4,4,{4}35,
{8}2^7[8:1],7>5[4:1],{4}2>8[4:1],{2}4hx[2:1],

{4}1bx,{8}24,{16}3,5,2,4,{8}1,{4}2h[4:1]/3,
{16}3,2,{8}4,57,{16}6,4,7,5,{8}8,{4}6/7h[4:1],
{16}8,8,7,7,6,6,5,5,{8}4,35,24,13,
{16}1,1,2,2,3,3,4,4,{8}5,46,{4}45,
{8}2b/7b,4,{16}6,5,6,5,{8}6h[8:1],{16}8bh[8:1],,7,1bh[8:1],,8,
{8}2b,1,{16}3,4,3,4,{8}3h[8:1],{16}1bh[8:1],,2,8bh[8:1],,1,
{16}7b,7,6,6,5,5,4,4,{8}6,{16}6x/8bh[8:1],,7x,1bh[8:1],8x,,
{16}2b,2,3,3,4,4,5,5,{8}6,1b/8b,{4}2x/7x,

{4}C/B1,C/B2,C/B3,C/B4,
{4}C/B8,C/B7,C/B6,C/B5,
{4}C/B1/A1,C/B2/A2,C/B3/A3,C/B4/A4,
{4}C/B8/A8,C/B7/A7,C/B6/A6,C/B5/A5,
{8}8/B1/A1,8,7/B2/A2,7,6/B3/A3,6,5/B4/A4,5,
{8}4/B8/A8,4,3/B7/A7,3,2/B6/A6,2,1/5h[4:3],1xp1[16:3]b,
{2},{8},7bx/8bx,1bx/2bx,3bx/4bx,
{8}5bx/6bx,1bx/8bx,{4}4bxh[4:1]/5bxh[4:1],{8},{24}B5/B4/E5,B6/B7/B3/B2/C,D2/E2/B1/B8/E8/D8/E1/D1f,{4}1bx-4[4:5]b/8bx-5[4:5]b,

{1},
{2},{12}4/5b-8[8:1]b,,4,5b,,2x,
{12}1-6[8:1]b,3,4,1b,,2,1-6[8:1]b,3,4,{4}1b,
{16}7,8,7,8,{8}16,34,56,18,{4}3b/7b-3[8:1],
{8}2-7[8:1]b,1,2/6-1[8:1],5,3-6[8:1]b/6,4,3/8-4[8:1],7,
{8}2-7[8:1]b/8,3,2/5w1[8:1],6,{4}5,{12}3b/7b,,2,
{12}8s4[4:1],1,7,{4}8,{12}5,5,5,{4}46,
{8}8-4[8:1]/7-3[8:1],16,{4}7>6[4:1]b/8,7,2b-6[8:1]b,

{8}2/8-4[8:1],7,2-5[8:1]b/8,1,2/7-2[8:1],6,4-7[8:1]b/7,3,
{8}4/6-1[8:1],5,3qq8[8:3]b/6,4,{4}3/7-4[8:1],7b,
{8}17,{16}2,2,{8}1,34,56,1,34,8b,
{8}8b-6[8:1]b,8-2[8:1]b,8x-5[8:1],8x-3[8:1],8x-4[8:1]b,8x,{4}8bx,
{8}2x-5[8:1]b/8,3,2/6-1[8:1],7,3-8[8:1]b/6,4,3/7-2[8:1],6,
{8}4-8[8:1]b/7,3,4/5pp1[8:3],6,{4}2v4[8:1]b/5,{16}2b,Cf,{8},
{12}8,1,7,26,,4,4,5,3,{4}26,
{8}7^2[8:1],2<4[4:1],{4}7^4>6[8:3]b,{2}Cf,

{1}1bpp5[1:1],
{2},{8}8x,{24}3,5,4,{8}6,3x/7x,
E

名前:
コメント:

タグ:

+ タグ編集
  • タグ:
最終更新:2026年03月07日 08:51