EASY
BASIC
ADVANCED
EXPERT
MASTER
(152){4}
2h[4:1],3h[2:1],1^6[16:1],,
7h[4:1],6h[2:1],8^3[16:1],,
4h[4:1],5h[2:1],6^1[16:1],,
{8}2,1,8,7,8,1,2,34,
{4}
6h[4:1],5h[2:1],3^8[16:1],,
8h[4:1],7h[2:1],2^5[16:1],,
5h[4:1],4h[2:1],2^7[16:1],,
{8}3,4,5,6,5,4,3,2b/3b,
{16}
2h[4:1],,3,,7h[8:1],,6,,24,,,25,,,26,,
,,1,,1,,,,8^3[16:1]/2h[4:1],,8,,,,,,
2-5[16:1],,8-4[16:1],,,,,,58,,,,16,,25,,
,,5,,5h[2:1],,,,6^1[4:1],,6,,,,,,
2,,2,,3,,3,,3,,,48,,,26,,
,,15,,1h[2:1],,,,8,,8,,7,,,,
1h[16:3]/6h[4:7],,,,8,,8h[4:1],,,,,,7,,7h[8:7],,
{1},{16}
1^6[4:1]/3,,3,,2,,1,,8,,,7,,,6-1[8:3],,
,,5,,4h[2:1],,,,,,,,,,,,
3,,2,,15,,48,,37,,,3^8[2:1],,,3,,
,,4,,5h[2:1],,,,,,,,,,,,
5,,6,,56,,45,,34,,,2^7[2:1],,,3,,
,,2,,2h[2:1],,,,,,,,,,,,
8h[16:3]/3h[4:7],,,,1,,1h[4:1],,,,,,2,,2h[8:7],,
{1},
8^3[2:1]/7^4[2:1],
{8}
2h[8:3],,1,3h[2:1],,,4,2,
,6,7,8,1,8,7,6,
3h[8:3],,4,2h[2:1],,,3,1,
,3,2,1,8,1,2,12,
2-6[8:1],1,8,7,1^6[8:1],5,4,3,
8-5[8:1],3,2,1,7,5,3,1h[2:3],
,2,3,4,5,6,7,8,
2,,7,8,,1b/8b,,,
{4}
1^6[8:1]/4,5,3^8[8:1]/4,5,
1^6[8:1],2-6[8:1],3-6[8:1],,
7^2[8:1]/5,4,3^8[8:1]/5,4,
2^5[8:1],1-5[8:1],8-5[8:1],,
1-5[8:1],7-3[8:1],1-6[8:1],,
4^1[8:1]/7^4[8:1],,38,1-5[16:1],
1^6[16:1],1^4[16:1],,,
8^3[8:1]/5,4,6^1[8:1]/5,4,
8^3[8:1],7-3[8:1],6-3[8:1],,
7^4[8:1]/8,1,2^5[8:1]/8,1,
8-4[8:1],8^3[8:1],8^5[8:1],,
{8}
,,2,1,8^3[8:1],7,6,5,
4,,8,1,2^7[8:1],3,4,5,
6,,8,1,7^2[8:1],2,6,3,
5h[4:3],,,,,,,,
7h[8:3],,,1h[8:3],,,8,,
2-6[4:1],,7,8,1,2,3,4,
1^6[8:1],,2-6[8:1],,3-6[8:1],,,,
8-4[4:1],,2,1,8,7,6,5,
2^5[8:1],,1-5[8:1],,8-5[8:1],,,,
,,6,7,8,2,3,4,
48,,,3,2,1,7,6,
{16}15,,,48,,,7^2[4:1]/3^6[4:1],,{8},,,,
8^3[4:1],,6,7,8,1,2,3,
4h[4:3]/5-8[8:1],,,,8-5[8:1],,,,
2-6[4:1],,7,8,1,2,3,4,
5h[4:3],,8,,1,,1,67,
,23,,1b/7b,,,18,,
,,2,1,2,1,2,3,
34,,8,7,8,7,16,25,
{1}
3^8[4:3]/4^7[4:3],
,
8-5[2:1]/3h[4:3],
6-3[2:1]/4h[4:3],
{2}
5h[4:7]/1,2,
3,4,
{8}
8,,8^3[4:1],8h[8:3],,,,,
2,,2^7[4:1],2h[8:3],,,,,
6,,6^3[4:1],6h[8:3],,,,,
2b,1b,8b,7b,,,,,
{4}
2h[4:1],3h[2:1],1^6[16:1],,
7h[4:1],6h[2:1],8^3[16:1],,
4h[4:1],5h[2:1],6^1[16:1],,
{8}2,1,8,7,8,1,2,34,
{4}
6h[4:1],5h[2:1],3^8[16:1],,
8h[4:1],7h[2:1],2^5[16:1],,
5h[4:1],4h[2:1],2^7[16:1],,
{8}3,4,5,6,5,4,,1h[8:15]/8h[8:15],
{1},,,
E
Re:MASTER
(152){4},,,,
3h[4:3],4q1[4:1],,,6h[4:3],5p8[4:1],,,
3h[4:3],4q1[4:1],,,{8}2,1,3,8,4,7,5,6,
{4}4/5h[4:3],7p2[4:1],,,4h[4:3]/5,2q7[4:1],,,
4/5h[4:3],7p2[4:1],,,{8}18,7,57,2,2/4-8[8:1],,,,
46,6,26,6,6/8^3[8:1],6,6,6h[4:1],,4,4/5pp4[4:1],,1,2,3,,
35,3,37,3,1^6[8:1]/3,3,3,3h[2:1],,6,5,4,3,4,5,6,
46,6,26,6,6/8^3[8:1],6,6,6h[4:1],,4,4qq5[4:1]/5,,8,7,6,,
47,{16}6,5,6,,25,,3,4,{8}3,45,2/7h[2:1],,8,1,2^7[8:1],,3,4,5,
6,6,57,4,3,3,24,5h[8:3],,7,7<3[4:1],,1,8,7,,
3,3,24,5,6,6,57,4h[4:1],,5,4,3,2,3,4,5,
6,6,57,4,3,3,24,1h[8:3],,3,3<7[4:1],,8,1,2,,
25,{16}3,4,3,,45,,6,5,{8}6,47,5^3[8:1]/8,,5^7[8:1],,5p2[8:3],,5,,,
8bqq5[2:1],,,,4-1[8:1],,,,
2^7[8:1]/6,,5-8[8:1],5,,,4-1[8:1],4,,7,6,5,3pp4[4:1]/4,,8,,
7h[8:3],3,2,1^3[8:1],,1^7[8:1]/5,,1,,5,4,3,2h[2:1],1,8,7,
6,5,4,3h[4:1],,4,25,,7,6,5,4h[4:1],,5,36,,
8,4,7,3,6,2,5,1,28,{16}3,4,{8}3,1b/7b,,45,36,27,
1>5[4:1]/8,,5qq1[2:1],6,7,8,7,6,5h[4:1],,2,{16}4,3,,5,{8}4,26,37,
5/8<4[4:1],,4pp8[2:1],3,2,1,2,3,4h[4:1],,7,{16}5,6,,4,{8}5,37,26,
1/5h[4:3],,8,1,2,3,4qq4[4:1]*pp4[4:1],4,,,,1,8,7,6,5,
24,{16},57,{8},1bpp4[8:3]/4bpp7[8:3],,,,,,,12,38,47,56,{16}4,5,{8}4,
1b>6[4:1]/6b,6,7,8-4[8:1],,3>6[4:1],,5h[8:5],,,4,3,2,13,48,57,
6-2[8:1],7,8,1-5[8:1],,8<1[4:1],,1,,,5,4,3,45,36,{16}4,5,
2-6[8:1],,,,1,,8,,7,,45,,27,,5,4,7-3[8:1],,,,8,,1,,2,,45,,27,,4,5,
{8}1-5[8:1],5-1[8:1],4,8,,36,5,4,2b^5[8:1],1,8,7,,36,18,,
2bV48[4:1]/7b,,8pp4[2:1],7,6,5,4,5,6h[4:1],,3,{16}3,5,,5,{8}8,16,45,
3/7V51[4:1],,1qq5[2:1],2,3,4,5,4,3h[4:1],,6,{16}6,5,,5,{8}1,38,45,
1h[2:1]/6,,2,3,4,5,16,27,3h[4:1]/8,,4,3,2,13,48,57,
46,{16},24,{8},4bqq1[4:1]/8bqq5[4:1],,,,,16,25,34,38,47,56,{16}4,5,{8}4,
3b/8b<3[4:1],3,2,1-5[8:1],,6<3[4:1],,4h[8:3],,,5,6,7h[2:1],8,1,2,
3-7[8:1],2,1,8-4[8:1],,1,2,3-8[8:1]/8,,6<3[4:1],,1b,,,45,,
7-3[8:1],,8,1,2,45,27,{16}3,4,2-6[8:1],,,,1,,8,,7,,45,,27,,6,5,
{8}8qq5[4:3],1,2,3qq5[8:3],,,,,,,57,45,36,,2b/7b,,
{2}4v5[8:1]/6h[4:1],4v6[8:1]/7h[4:1],4v7[8:1]/8h[4:1],1h[4:1]/4-8[8:1],
2h[4:1]/4v1[8:1],3h[4:1]/4v2[8:1],4v3[8:1]/5h[4:1],4-8[8:1]/6h[4:1],
{8}7,6,5,3h[8:3]/4,,2,2,,6,5,4,2h[8:3]/3s7[4:1],,,,,
5,4,3,1h[4:1]/2,,3,4,5,36,5,4,2b/8b,,45,27,,
5-8[8:1],,3p1[4:1],,8,7,6,,5-8[8:1],,3p1[4:1],,7,6,5,,
5-8[8:1],,3p1[4:1],,6,5,4,,2h[2:1],3,4,5,6-1[8:1],6h[8:3],,,
4-1[8:1],,6q8[4:1],,1,2,3,,4-1[8:1],,6q8[4:1],,2,3,4,,
4-1[8:1],,6q8[4:1],,3,4,5,,7h[2:1],6,5,4,3,28,,1b>8[8:15]/5h[8:17],
{1},,,,E
最終更新:2026年10月31日 20:39