BASIC
(190){1},,,
4,
4,
4,,
5,
5,
4/5,,
4,
3,
2,
1,
8,
7,
6,
4/5,
5-8[4:3],,
1-4[4:3],,
5,
6,
7,
1/8,
1,
2,
3,
4h[1:1]/5h[1:1],,
{2}4b,4,
{1}4,
{2}3,3,
{1}3,
{2}2,2,
{1}2,
{2}1,1,
{1}1/8,
{2}8,8,
{1}8,
{2}7,7,
{1}7,
{2}6,6,
{1}6,
{2}5,5,
{1}4/5,
4-8[4:3],,
7-3[4:3],,
2-6[4:3],,
7-4[4:3],,
B4,
B5,
B3,
B6,
B2,
B7,
Cf,,
1hx[1:1]/2hx[1:1],,
3h[1:1]/4h[1:1],,
5h[1:1]/6h[1:1],,
7h[1:1]/8h[1:1],,
{2}1,1,
8,8,
1,1,
{1}1h[4:3]/8h[4:3],
{2},8bx,
8x,7x,
7x,6x,
6,4/5,
,4,
4,3,
3,2,
2,1/8,
,1b,
1,2,
2,3,
3,4/5,
4/5,5,
5,6,
6,7,
7,1/8,
,1x/8x,
1x/8x,1x/8x,
{4},,8b,8,
{2}8,7,
7,6,
6,5/6,
{4},,4,4,
{2}4,3,
3,2,
2,1/2,
{4},,1b,1,
{2}1,2,
2,3,
3,4/5,
{4}4/5,,5,5,
{2}5,6,
6,7,
7,1bx/8bx,
,8,
8,1,
1,1/8,
1/8,2/7,
,B1/B8,
,B2/B7,
,Ch[8:7]/B3/B6,
E
ADVANCED
(190){1},,,
3,
3,
4,
4,
5,
5,
6,
6,
{2}7,7,
6,6,
5,5,
{1}3/4,
{2}2,2,
3,3,
4,4,
{1}5/6,
7-4[4:3],,
2-5[4:3],,
{2}6,6,
7,7,
8,8,
{1}1/2,
{2}3,3,
2,2,
1,1,
{1}7/8,
{4}1,1,1b,,
2,2,1/2,,
8,8,1/8,,
7,7,7/8,,
5/6,5/6,5/6,,
7,7,7/8,,
1,1,1/8,,
2,2,1/2,,
3/4,3/4,3/4,,
3,3,3/4,,
2,2,1/2,,
8,8,7/8,,
5/6,5/6,5/6,,
6,6,5/6,,
7,7,7/8,,
1,1,1/2,,
3/4,3/4,3/4,,
{1}2-6[4:3],,
7-3[4:3],,
2-5[4:3],,
7-4[4:3],,
{2}B3,B2,
B1,B8,
B7,B6,
{1}B4/B5,
{2}B6,B7,
B8,B1,
B2,B3,
{1}B4/B5,
6h[1:1],
5h[1:1],
4h[1:1],
3,
3h[1:1],
4h[1:1],
5h[1:1],
6,
5h[2:1]/6h[2:1],
3h[2:1]/4h[2:1],
{4}5,5,4,4,
4/5,4/5,4/5,4b/5b,
,,6,6,
7,7,8,8,
1/2,,3,3,
2,2,1,1,
7/8,,7,7,
6,6,5,5,
3/4,,3,3,
3/4,,1/2,1/2,
1/2,,3,3,
2,2,1,1,
7/8,,6,6,
7,7,8,8,
1/2,,2,2,
3,3,4,4,
5/6,,6,6,
5/6,,7/8,7/8,
7/8,,1/2,1/2,
1/2,,1x/8x,1x/8x,
1bx/8bx,,7,7,
7,7/8,6,6,
6,5/6,4,4,
4,3/4,2,2,
2,1/2,1-6[4:3]/2-5[4:3],,
{1},
{2},7-4[4:3]/8-3[4:3],
{1},
{4},,2,2,
2,1/2,3,3,
3,3/4,5,5,
5,5/6,7,7,
7,7/8,7-4[4:3]/8-3[4:3],,
{1},
{2},1-6[4:3]/2-5[4:3],
{1},
{4},,7,7,
7/8,,6,6,
5/6,,3,3,
3/4,,2,2,
{2}1/2,3,
4,5,
6,4h[4:3]/5h[4:3],
E
EXPERT
(190){1},
{8}4/6,,,3/5,,,3h[4:3]/6h[4:3],,
{1},
{8}7h[4:1],,5,5,,4,4,,
3,,3/5,,6,6,4,,
2h[4:1],,4,4,,5,5,,
6,,4/6,,3,3,5,,
4b/7hb[4:1],,5,5,,4,4,,
3,,3/5,,6,6,4,,
2h[4:1],,4,4,,5,5,,
6,,4/6,,3,3,5,,
{4}7h[4:1],5h[4:1],4h[4:1],2h[4:1],
8,3/7,4/6,,
3h[4:1],1h[4:1],8h[4:1],6h[4:1],
4,3/7,3/7,,
2h[4:1],4h[4:1],5h[4:1],7h[4:1],
1,2/6,3/5,,
6h[4:1],8h[4:1],1h[4:1],3h[4:1],
5,2/6,1/7,8hb[4:9],
E1,E8,E7,E6,
E5,E4,E3,,
{8}1x,1x,,3x/5x,,2x/6x<5[8:5],,,
{1},
{4}6,5/7,3,2/4,
{8}6h[4:1],,5,,7,7,1,,
{4}3,2/4,6,5/7,
{8}3h[4:1],,4,,2,2,8,,
{4}5/7,6,2/4,3,
6h[4:1],5,3h[4:1],4,
{8}2,2,4,,7,7,5,,
{4}7/8,5/6,3/4,1/2,
1,1,1,1,
{2}7-4[8:1]/8-4[8:1],1-5[8:1]/2-5[8:1],
7-4[8:1]/8-4[8:1],1-5[8:1]/2-5[8:1],
{4}7-4[8:1]/8-4[8:1],,1/2,2h[4:1],
4h[4:1],5h[4:1],7h[4:1],1,
1V35[8:3],,,7,
8z4[2:1],,,3,
1/2,7/8,5-2[4:1]/6-1[4:1],,
,1/2,3b/8b,,
{2}1-5[8:1]/2-5[8:1],7-4[8:1]/8-4[8:1],
1-5[8:1]/2-5[8:1],7-4[8:1]/8-4[8:1],
{4}1-5[8:1]/2-5[8:1],,7/8,7h[4:1],
5h[4:1],4h[4:1],2h[4:1],8,
8<4[8:3],,,2,
1-4[4:1]*-5[4:1],,,5/6,
7/8,1/2,3/4,3/4,
1/2,7/8,5/6,4b/7b,
{8}3,3,5,,1/7,1/7,,2h[8:5]/6h[8:5],
{4},,,3/5,
{8}6,6,4,,2/8,2/8,,3h[8:5]/7h[8:5],
{4},,,4/6,
7h[2:1],5,3h[2:1],5,
7h[2:1],5,3h[4:1],5,
7h[4:1],5h[4:1],4h[4:1],2h[4:1],
7,8-4[8:1],,,
{8}6,6,4,,2/8,2/8,,3h[8:3]/7h[8:3],
,,,,6,6,4,,
3,3,5,,1/7,1/7,,2h[8:3]/6h[8:3],
,,,,3,3,5,,
{4}2h[2:1],4,6h[2:1],4,
2h[2:1],4,6h[4:1],4,
2h[4:1],4h[4:1],5h[4:1],7h[4:1],
8h[4:1],1h[4:1],2h[4:1],4>5[4:7],
{1},,,
{2},3/6h[2:7],
{4}4,4,4,4,
5,5,5,5,
4,4,5,5,
3h[1:3],E6,E5,E4,
E3,E2,E1,E8,
E7,E6,E5,E4,
{1}Ch[1:1],
{4}E1,E2/E8,E3/E7,E4/E6,
{2},1-6[8:1]/2-5[8:1],
7-4[8:1]/8-3[8:1],1-6[8:1]/2-5[8:1],
7-4[8:1]/8-3[8:1],1-6[8:1]/2-5[8:1],
{4}7/8,7h[4:1],5h[4:1],4h[4:1],
2h[4:1],8,8V64[8:3],,
,2,1s5[2:1],,
,6,7/8,1/2,
3-8[4:1]/4-7[4:1],,,7/8,
{2}1b/6b,7-4[8:1]/8-3[8:1],
1-6[8:1]/2-5[8:1],7-4[8:1]/8-3[8:1],
1-6[8:1]/2-5[8:1],7-4[8:1]/8-3[8:1],
{4}1/2,2h[4:1],4h[4:1],5h[4:1],
7h[4:1],1,1>5[8:3],,
,7,8-4[4:1]b*-5[4:1]b,,
,3/4,1/2,7/8,
5/6,5/6,7/8,1/2,
3/4,2b/5b,1b/2b,1/2,
3/4,3/4,1/2,7/8,
5/6,4b/7b,7-5[8:1]/8-4[8:1],,
{2}7-3[8:1]/8-2[8:1],7-5[8:1]/8-4[8:1],
7-3[8:1]/8-2[8:1],7-5[8:1]/8-4[8:1],
7-3[8:1]/8-2[8:1],7-5[8:1]/8-4[8:1],
{4}7/8,7/8,6h[4:1],5,
{8}7,7,8,,3h[4:1],,4,,
2,2,1,,5/6,,7/8,,
{4}3/4,1/2,5/6,7/8,
3/4,1/2,1-5[8:1]/2-4[8:1],,
{2}1-7[8:1]/2-6[8:1],1-5[8:1]/2-4[8:1],
1-7[8:1]/2-6[8:1],1-5[8:1]/2-4[8:1],
1-7[8:1]/2-6[8:1],1-5[8:1]/2-4[8:1],
{4}1/2,1/2,3h[4:1],4,
{8}2,2,1,,6h[4:1],,5,,
7,7,8,,3/4,,1/2,,
{4}5/6,7/8,4/5,3b/6b,
{8},1bx/8bx,1bx/8bx,,7h[4:1],,5,5,
,2,2,4,,7,7,5,
,4q5<3[8:11]/6,,,,,,,
{1},
{4},4/5,6,5/6,
3,3/4,6,5/6,
{8}4,,4/5,,4/6,4/6,,3/5,
3/5,,2bx/6bx,2bx/6bx,
E
MASTER
(190){1},
{8}3hx[4:1]/5hx[4:1],,,4hx[4:1]/6hx[4:1],,,3hx[4:3]/5xp4[2:1],,
{1},
{8}3/4,,2,2h[4:1],,4,4,,
5,,4/6,,3,3,5,,
4/6,,7,7h[4:1],,5,5,,
4,,3,3,6,,4/5,,
3,3,4,2h[4:1],,4h[4:1],,5h[4:1],
,7h[4:1],,8,8,,3/5,,
6,6,5,7h[4:1],,5h[4:1],,4h[4:1],
,2h[4:1],,1,1,,4/6,,
7h[4:1],,5,4,3h[4:1],,5,6,
{4}7h[4:1],5,3/5,3/5,
{8}2h[4:1],,4,5,6h[4:1],,4,3,
{4}2h[4:1],4,4/6,4/6,
{8}8<5[8:1],,4,3,2>5[8:1],,6,7,
8<5[8:1],,4,3,2,,2/4,,
1>4[8:1],,5,6,7<4[8:1],,3,2,
{4}1h[4:1],B4/B5/E5,8h[4:1],2,
{8}3bx/6bx,,5/7,5/7,,1/8,,2/4,
,4/5,4/5,,6,6h[4:1],,8h[4:1],
,{4}1h[4:1],3h[4:1],5,{8}3/5,
,1/7,1/7,,4/6,,3b/7b,,
2h[4:1],,4,5,6h[4:1],,3,2,
{4}1-4[8:1],8-5[8:1],3,4/6,
{8}7h[4:1],,5,4,3h[4:1],,5,6,
{4}7-4[8:1],3-8[8:1],5,2/6,
{8}1>4[8:1],,5,6,7<4[8:1],,3,2,
{4}1pp5[8:5],6,6,7,
{8}8<5[8:1],,4,3,2>5[8:1],,6,7,
{4}8-4[8:1],2-6[8:1],5-8[8:1],3,
1/2,3/4,5/6,7-5[8:1]/8-4[8:1],
7x/8x,1-5[8:1]/2-4[8:1],1x/2x,7-5[8:1]/8-4[8:1],
7x/8x,1-5[8:1]/2-4[8:1],1x/2x,7-5[8:1]/8-4[8:1],
7x/8x,1-5[8:1]/2-4[8:1],1x/2x,7x/8x,
5x/6x,3x/4x,1x/2x,1xV75[4:1]*V35[4:1]/2x,
,,5/6,7/8-4[4:1]*z4[4:1],
,,3/5,3h[4:1]/5,
1h[4:1],8h[4:1],6h[4:1],5w1[4:1]b,
,,2bx/8bx,1-5[8:1]/2-4[8:1],
1x/2x,7-5[8:1]/8-4[8:1],7x/8x,1-5[8:1]/2-4[8:1],
1x/2x,7-5[8:1]/8-4[8:1],7x/8x,1-5[8:1]/2-4[8:1],
1x/2x,7-5[8:1]/8-4[8:1],7x/8x,1x/2x,
3x/4x,5x/6x,7x<1[2:1]/8x,,
,,1x/2x>8[2:1],,
,,7x/8x,3b/4b,
1b/2b,5b/6b,7b/8b,3b/4b,
1b-4[8:1]/8b,1x-6[8:1],1x-5[8:1],1x,
{8}7,7,5,,4/6,4/6,,1b/8b,
,2,2/4,,4/6,7,5/7,,
4/6,4/6,4/6,,2,2b/4b,,5b/7b,
{16},,3b/6b,,3b/6b,,,,4,5,4,5,4,,,,
{4}2-5[8:1],8,6-1[8:1],4,
{8}2-5[8:1],,8,,6,6,4,,
3,4,2,6,5,7,3,4,
2,7,5,6h[4:1],,4,4,,
2,2,4,,1/2,1/2,,5b/6b,
,7,5/7,,3/5,2,2/4,,
4/6,4/6,4/6,,7,7b/8b,,1b/2b,
{16},,2b/7b,,2b/7b,,,,1,8,1,8,1,,,,
{4}7-4[8:1],1,3-8[8:1],5,
{8}7-4[8:1],,1,,3,3,5,,
7,5,6,2h[4:1],,8-4[8:1],,1-5[8:1],
,{4}7-3[8:1],2-6[8:1],8-4[8:1],{8}3hb[8:61],
{1},,,
{2},E5,
{4}4,4,4,4,
5,5,5,5,
B4/E5,B2/E3,E1/B8,B6/E7,
B4/E5,B2/E3,E1/B8,B6/E7,
{8}4,4,5,5,3,3,6,6,
{16}4,5,4,5,4,5,4,5,4,5,4,5,4,5,4,5,
{4}3bx,E6,E5,E4,
3h[4:1],4h[4:1],5-1[8:1],6,
,1-5[8:1]/2-5[8:1],1x/2x,7-4[8:1]/8-4[8:1],
7x/8x,1-5[8:1]/2-5[8:1],1x/2x,7-4[8:1]/8-4[8:1],
7x/8x,1-5[8:1]/2-5[8:1],1x/2x,7-4[8:1]/8-4[8:1],
7x/8x,1bx/2bx,3bx/4bx,5bx/6bx,
7bx/8bx,7bx/8bxV64[4:1]b*V24[4:1]b,,,
3x/4x,1-5[4:1]b*s5[4:1]b/2,,,
4/6,4/6h[4:1],8h[4:1],1h[4:1],
3h[4:1],4w8[4:1]b,,,
1bx/7bx,7-4[8:1]/8-3[8:1],7x/8x,1-6[8:1]/2-5[8:1],
1x/2x,7-4[8:1]/8-3[8:1],7x/8x,1-6[8:1]/2-5[8:1],
1x/2x,7-4[8:1]/8-3[8:1],7x/8x,1-6[8:1]/2-5[8:1],
1x/2x,7x/8x,5x/6x,3x/4x,
{1}1x/2x>8[2:1],
1x/2x>8[2:1]b,
{4}7x/8x,3b/4b,1b/2b,5b/6b,
7b/8b,3b/4b,1b-5[8:1]/8b,1x-6[8:1],
1x-4[8:1],1x,1b-5[8:1]/8b-6[8:1],1/8,
1b-3[8:1]/8b-4[8:1],1/8,1b-4[8:1]/8b-5[8:1],1/8,
3b/6b,5-1[8:1]/7,6,2/4-8[8:1],
3,5-1[8:1]/7,6,2/4-8[8:1],
3,5qq1[2:3]/7,6,6,
6,6,6,6,
{8}6,,6,,7h[4:1],,5,5,
,6,4/6,,2h[4:1],,4,4,
,3,3/5,,6h[4:1],,8b,,
{4}3h[4:1],1b,6h[4:1],8b,
2,3b/5b,2/4-8[8:1],3,
5-1[8:1]/7,6,2/4-8[8:1],3,
5-1[8:1]/7,6,2/4pp8[4:5],3,
3,3,2,2,
1,1>5[4:1],5<1[4:1],1>5[4:1],
5<1[4:1],1>5[4:1],5x<1[4:1],1x>5[4:1],
5x<1[4:1],1x>5[4:1],5bx<1[4:1],1bx>5[4:1],
5bx,7bx,1bx-4[8:1]/8bx-5[8:1],1bx/8bx,
{8},3x/6x,3x/6x,,7h[4:1],,5,5,
,2,2,4,,7,7,8,
{16},,5/6,,,4x,,,3x,,,2x,,,1x,,
{8}8x,7x,6x,5xs1[2:1],,,,,
,,,,1b/8b,,7,5/7,
,2,2/4,,4/5,,3/6,,
{16}4,5,4,5,4,,,,3/5,,3/5,,,,4/6,,
{8}4/6,,1b/8b,2b/7b,
E
Re:MASTER
(190){1},
{8}2x/4x,,,1x/8x,,,5x/7x,,
,,{12}E6,B5,B4,E4,,,,,,
{8}4/6h[4:1],,5,5,,4,4/5,,
3h[4:1],,4,,5,5,4/6,,
3h[4:1],,4,4,,5,5h[4:1],,
4,,3/6,{16}4,5,4,,4,,3/5,,6,,
{8}4bx/7bh[4:1]x,,5,5,,4,4/5,,
3,,3/4,,5,5,4/6,,
3h[4:1],,4,4,,5,5h[4:1],,
4,,3/6,{16}4,5,4,,4,,3/6,,2/7,,
{8}2b/7b,,3,3,5,5,4,4,
7h[8:7],,E8,,E7/B6,,,1,
1h[4:1],,8,8,2,2,6,6,
4,,1-5[4:1]*V75[4:1],,,,,4x/6x,
4x/6x,,3,3,5,,2-7[8:1],,
3-6[8:1],,1,,1,,7/8,7/8,
7qq5[4:1]b/8q5[4:1]b,,,,,,6pp4[8:4]/3qq5[8:4],,
,,,,,,3/6,,
{16}4b/7b,,6,5,6,,4/7^4[8:1],,,,3,,2,,1^4[8:1],,
,,5,,6-3[8:1],,,,3,,2h[4:1],,,,3,,
3,,2/4,,3/5,,4/6,,,,1bw5[4:1]b/8,,,,1b,,
,,,,,,4x/6x,,4x/6x,,,,3/7,,3/7,,
{8}4/6,,3,3,5,5,2-4[8:1],,
8-6[8:1],,1-5[8:1],,7,,6,6,
4,4h[4:1],,5,5,3,3v6[4:1],,
6,,7,,1h[4:1]/8h[4:1],,,2/7,
2/7,6,6,4,4,3/5,3qq8[2:1]/5h[1:1],,
,,,,,,1x,1x,
7,7,3,3,5,5,4,3/6,
3/6,,1-4[8:1]/8-5[8:1],,1/8,,3x/6x,,
E5,,B5/B4,,E7/B6/B3/E3,,1-5[8:1]/7h[4:9],,
1b,,8-6[8:1],,8,,1-5[8:1],,
1,,2-4[8:1],,2,,1>7[4:1],,
1,,,,1x/8x,,5/7,,
3/4,2,1/8,7,4/6,3,1-5[8:1]/2-5[8:1],,
1/2,,4x/6x,,5/6,,7/8z4[4:1]b,,
1/8,,3,,2/5-7[8:1],,5-3[8:1],,
5-8[8:1],,5-2[8:1],,5w1[4:1]b,,,,
,,2-5[8:1]*-6[8:1]/8,,2b,,7/8-3[8:1],,
1/8,,8-5[8:1],,7/8,,8-3[8:1],,
1/8,,8-5[8:1],,7/8,,8>6[4:1],,
1/8,,,,1x/8x,,2/4,,
5/6,7,1/8,2,3/5,6,7/8-4[8:1]b,,
1/8,,3x/4x,,2/5,,4/6<2[4:1],,
2v4[4:1],,4x,,3,,2/3,,
1-5[8:1]/2-5[8:1],,1/2,,7-4[8:1]/8-4[8:1],,7/8,,
1^4[8:1]/8<5[8:1],,1-5[8:1]/8-4[8:1],,1-3[8:1]/8-6[8:1],,1b/8b,,
2/6,2/6,2/6,,7/8,7-4[8:1]/8-3[8:1],,7/8,
,2/5,2/5,,3/4,,5/6,,
3/7,3/7,3/7,,1/2,1-6[8:1]/2-5[8:1],,1/2,
,4/7,4/7,,5h[4:1]/6h[4:1],,,{24}4,3,2,
{8}1h[8:3],,,8h[4:1],,6,5,4h[2:1],
,6,,8,,{16}7,5,7,,8,,
1,,2,,7,,6,,3,,4,,5,,6h[4:3],,
,,8,,1,,2h[4:1],,,,,,1,,,,
7h[8:1],,{24}8x,1x,2x,3x,4x,5x,6x,,,{16}8,1,8,1,8,,3h[2:1],,
,,,,,,5h[2:1],,,,4,,3,,3,,
7x,6,5,4,3,2,7x,6,5,4,3,2,8x,7,6,5,
4,3,8x,7,6,5,4,3,{2}8xh[4:1],
{24}4,3,2,1h[4:1],,,,,,7h[8:3],,,,,,6,,,5,,,,,,
4,3,2,1h[4:1],,,,,,7h[4:1],,,,,,6,,,7,,,8,,,
{16}1,,2,,3,,4h[4:1],,,,6,,5,,4,,
,,3,4,2,,1b-5[8:1],,,,1b/6bw2[8:1],,,,6b,,
{1},,,
{16},,,,,,E4,E5,E6,,,,,,,,
{4}4,4,4,4,
4,4,4,4/5,
{16}4,5,4,5,4,5,4,5,4,5,4,5,4,5,4,5,
4,5,4,5,4,5,4,5,4,5,4,5,4,5,4,5,
3,6,3,6,3,6,3,6,3,6,3,6,3,6,3,6,
4,5,4,5,4,5,4,5,4,5,4,5,4,5,4,5,
{4}E4,E3/E5,E4/B4/B3,B5/E6/B2/E2,
{8}A6,A7,A8,A1,A2,A3,Ch[8:1],B4/B5,,,1-4[8:1]x/7hx[4:9],,
{4}1b-6[8:1],1-5[8:1],1-4[8:1],1-6[8:1],
1-5[8:1],1-4[8:1],1-6[8:1],1>7[4:1]b,
1,,1x/8x,2/4,
{8}5/7,8,1/2,3,4/6,7,7-3[8:1]/8-3[8:1],,
7/8,,2x/4x,,5/7,,7/8z4[4:1]b,,
1/8,,3,,5-1[8:1],,5-7[8:1]*-8[8:1],,
5-2[8:1]*-3[8:1],,5w1[8:1],,5pp1[16:5]*qq1[16:5],,
,,,,1x-6[8:1]b/2x-6[8:1]b,,1b/2b,,8-3[8:1],,
{4}1/8-5[8:1],7/8-2[8:1],1/8-6[8:1],7/8-3[8:1],
1/8-5[8:1],7/8-2[8:1],1/8-6[8:1],7/8>6[4:1],
1/8,,1x/8x,5/7,
{8}3/4,2,1/8,7,5/6,4,3/4,,
3-1[8:1]/4-8[8:1],,3/4,,2x/6x,,5/6,,
5-1[8:1]/6-8[8:1],,5/6,,3x/7x,,2/4,,
1-6[8:1]/2-5[8:1],,1/2,,7-4[8:1]/8-3[8:1],,7/8,,
1^4[8:1]/8<5[8:1],,1-5[8:1]/8-4[8:1],,1-3[8:1]/8-6[8:1],,1b/8b,,
4b/5b,,3/5,6,4/7,3,2/4,5,
4/6,3,3x/5x,3x/5x,2x/6x,2x/6x,1x^4[8:1]/7xh[4:9],,
{4}1bq5[8:1],1v6[8:1],1^4[8:1],1q5[8:1],
1v6[8:1],1^4[8:1],1q5[8:1],1>7q8[4:3]b,
1b,,,,
{8}6x,,5x/7x,,3x,3x,2x/4x,,
5/7h[8:5],,8,8,,5,4,3,
2h[8:5]/4,,1,1,,5,6,7,
1/8,8,6/8,8,3/8,8,5/8,8,
1/8,1,1/3,1,1/6,1,1/8<5[8:1],,
{4}2/8b^3[8:1],6/8p4[8:1],2/8q4[8:1],6/8<5[8:1],
2/8^3[8:1],6/8p4[8:1],2/8q4[8:1],6/8<1s5[4:3]b,
2b/8b,,,,
{8}2x,,3x/4x,,7x,7x,5x>1[4:1]/6x,,
{4}1<5[4:1],5>1[4:1],1<5[4:1],5>1[4:1]b,
1b<5[4:1]b,5b>1[4:1]b,1b,5b,
{8}2/4,3,5/7,6,1/4,3,5/8,6,
1-6[8:1]/2-5[8:1],,1b/2b,,,3b/8b,3b/8b,,
3h[4:1]/7h[4:1],,,4>1[4:1]/6,,6,5,4<7[4:1],
{24},,,2,,,3,,,4,,,,,,8h[24:5],,,,,1h[6:1],,,,
{6}2h[6:1],3h[6:1],4h[6:1],5h[6:1],6h[6:1],7q8>6[3:2],
{1},
{8}6,5,4,3h[4:1],,5,,6,
,4/6,,3/6,3/6,{16}5,4,5,4,5,,
2,,2/4,,,,7,,5/7,,,,1,,1b-5[8:1]/5,,,,
最終更新:2026年08月06日 23:19