| アーティスト |
シカ部 [鹿乃子のこ (CV.潘めぐみ)、虎視虎子 (CV.藤田 咲)、虎視餡子 (CV.田辺留依)、馬車芽めめ (CV.和泉風花)] |
BASIC
ADVANCED
EXPERT
MASTER
(183)
{2},{4},B5/B4/E5,
{4}E7/B7,8h[2:1],E3/B2,1,
{4}45,B6/B3/C,{2}2/7-4[8:1]*-3[8:1],
{4}E7/B7,8h[2:1],E3/B2,1,
{4}45,B6/B3/C,{2}2-4[8:1]/7-5[8:1],
{4}E7/B7,8h[2:1],E3/B2,1,
{4}45,B6/B3/C,{2}2-6[8:1]*-5[8:1]/7,
{4}E7/B7,8h[2:1],E3/B2,1,
{4}45,B6/B3/C,1b/7b,2b-4^5-8[4:1]/8b,
{4}1x,1x,{8}28,2-6[8:1]/8,,7-4[8:1],
{8},3^8[8:1],,5,{4}5,8-5[8:1]/7q4[8:1],
{4},1x,{8}35,46,{4}46,
{2}7^4[8:1]/8p3[8:1],{4}2,1qq1[4:1],
{2}1^3[8:1],{8}5x,5x,,6-1[8:1],
{8},4,{4}3-8[8:1],5,2^8[8:1]/6^4[8:1],
{4},1x/5x,{8}3,2,{4}2qq6[2:1],
{4}6,4,5,46,
{2}5h[4:1]/7h[4:1],{8}3h[8:1],5h[8:1],2h[8:1],4,
{4}1x/7x,6v4-2[4:1],3,1h[4:1],
{4}4,5-8[8:1]*-7[8:1],{2}5-3[8:1]*-2[8:1],
{4}1x,38,{8}4bx/7bx,4bx/7bx,{4}4bx/7bx,
{4}25,{8}3x-1-3[8:3]/4x-8-4[8:3],3x/4x,{2},
{4}5x,{8}5x-1-5[8:3]/6x-8-6[8:3],5x/6x,{2},
{4}4-1[8:1],6,8-5[8:1],2,
{4}7v4[8:1]/1v4[8:1],1-3[8:1]/7-5[8:1],,2bx/6bxp3[2:1],
{4}1,2,2,1-4[8:1]/6^4[8:1],
{4},3x/5x,{8}E4,B6,B2,E8,
{8}1,1,{4}8>4[4:1]*<4[4:1],{2},
{8}35,35,{4}6xv8[4:1]/2xv4[4:1],{2},
{2}1v3[8:1]*-5[8:1],{8}4,4,{4}35,
{2}7-2-4[4:1]/1-5[8:1],{8}6,6,{4}57,
{2}7^4[8:1]/8^3[8:1],1^6[8:1]/2^5[8:1],
{4}47,5w1[4:1]b,{2}E6/B5f/E5,
{4}8-5^6q3v2[1:2]/7-4[1:2],,,
{4},,,
{4},,,
{4},,3x-7[8:1]/5x,
{4}6-2[8:1],{8}5,4^1[8:1],,E6,{4}E5f,
{8},8,{4}8h[4:1],5<4[2:1],E1f,
{2},{8}24,24,,15,
{4}1b/5,2b/4-8[8:1],{8}3b,2,{4}1bx-3[8:1],
{4}1bx-5[8:1],1bx-4[8:1],1bx-6[8:1],1bx>5[4:1],
{8}7,8,{4}8,{8}47,4h[4:1]/7h[4:1],{4},
{4}8V63[4:1],3>7[4:1],7-1v4[4:1],4<8[4:1],
{4}8-3[4:1],3s7[4:1],7x,{8}1x,1x,
{4},1-3[8:1]/8-4[8:1],,4x>1[8:1]*<7[8:1],
{4}D4/A4f/D5,{8}2x/6x,2x-7[8:1]/6x-3[8:1],{4},{8},1h[4:1],
{8},4,{4}4V68[4:1],8V24[4:1],4,
{8}8,8,5,6,4,3,6,7,
{4}8-5[8:1]/2-5[8:1],28,{8}46,46,35,35,
{8},1s5[4:1]/2h[4:1],{4},,{8},4-8[8:1]/3-8[8:1],
{4},{8},6-1[8:1]/5-1[8:1],{4},{8},34,
{8},26,{4}2-7[8:1]/6-3[8:1],2b/6b,1b/5b,
{2}8v5[8:1]/2v5[8:1],4^1[8:1]*-1[8:1],
{4}8x,{8}17,1^4[8:1]/7^4[8:1],,1x/7x,,6-3-1^7v5[8:5],
{8},4,{4}4h[8:5],,{8},6x,
{8},17,{4}7-3[8:1]b/1-5[8:1]b,,2/4-7[8:1],
{4}1-6[8:1],5-2[8:1],8-3[8:1],4pp3[4:1],
{4}2x,1-6[8:1]*-4[8:1],,5x-2[8:1]/7x,
{4}8-3[8:1],4-7[8:1],1-6[8:1],5,
{8}5,6,7,8-5[8:1],1^4[8:1],8bx,{4}1bx,
{4}6h[4:1],8p3[4:1],1x,2x,
{4}34,1q6[4:1]/2^5[4:1],1x/2x,{8},7h[4:1],
{8},5,{4}5,18,3-8[8:1]/4-7[8:1],
{4}3x/4x,1b/6b,{8},37,{4}37,
{4}46,{8}8,8,{4}3,{8}1,1,
{4}7,45,{8}36,{16}4,5,{8}4,3,
{4}2h[8:1]/4h[8:1],4h[8:1]/5h[8:1],5h[8:1]/7h[8:1],1-4[8:1]/8-5[8:1],
{4}18,A2/E2/A7/E8,{2}E4/B4/B5/E6,
E
Re:MASTER
最終更新:2026年02月28日 17:56