アットウィキロゴ

story

アーティスト 前島麻由

BPM BASIC ADVANCED EXPERT MASTER Re:MASTER
220 3 7+ 10+ 12 -

EXPERT MASTER Re:MASTER
譜面制作者 鳩ホルダー PG-NAKAGAWA -

BASIC

(220)
{1},
{1},

{1}1x,
{1}1,
{1}18,
{1},
{1}8x,
{1}8,
{1}18,
{1},

{1}1h[1:2]/8h[1:2],
{1},
{1},
{1},

{1}1,
{1}1,
{1}2,
{1}2,
{1}3,
{1}3,
{1}45,
{1},

{1}5,
{1}5,
{1}6,
{1}6,
{1}7,
{1}7,
{1}1x/8x,
{1},

{1}8-5[4:5],
{1},
{1},
{1}4,
{1}4-1[4:5],
{1},
{1},
{1}8,

{1}B1,
{1}B8,
{1}B2,
{1}B7,
{1}B3,
{1}B6,
{1}Cf,
{1},

{2}8b,8,
{1}8,
{2}7,7,
{1}7,
{2}6,6,
{1}6,
{2}5,5,
{1}45,

{2}4,4,
{1}4,
{2}3,3,
{1}3,
{2}2,2,
{1}2,
{2}1,1,
{1}18,

{1}1h[1:1]/2h[1:1],
{1},
{1}3h[1:1]/4h[1:1],
{1},
{1}5h[1:1]/6h[1:1],
{1},
{1}7h[1:1]/8h[1:1],
{1},

{2}7,7,
{1}78,
{2}6,6,
{1}56,
{2}3,3,
{1}34,
{2}2,2,
{1}12,

{2}8,8,
{2}1,1,
{1}1h[8:7]/8h[8:7],
E

ADVANCED

(220)
{1},
{1},

{2}2,2,
{2}3,3,
{2}4,4,
{1}56,
{2}7,7,
{2}6,6,
{2}5,5,
{1}34,

{1}2-6[4:3],
{1},
{1}7-3[4:3],
{1},

{2}2h[2:1],1h[2:1],
{2}8h[2:1],7,
{2}7h[2:1],8h[2:1],
{2}1h[2:1],2,
{2}2h[2:1],1,
{2}7h[2:1],8,
{2}1x/8x,1x/8x,
{1}1x/8x,

{2}B2,B3,
{2}B4,B5,
{2}B6,B7,
{1}C,
{2}B7,B6,
{2}B5,B4,
{2}B3,B2,
{1}C,

{1}2-5[4:3],
{1},
{1}7-4[4:3],
{1},
{1}2-6[4:3],
{1},
{1}7-3[4:3],
{1},

{4}2,2,{2}2,
{4}1,1,{2}1,
{4}8,8,{2}8,
{4}7,7,{2}7,
{2}56,56,
{2}78,78,
{2}12,12,
{1}3b/4b,

{4}3,3,2,2,
{4}1,1,{2}78,
{4}6,6,7,7,
{4}8,8,{2}12,
{4}2,2,2,12,
{4}3,3,3,34,
{4}5,5,5,56,
{4}7,7,{2}7x/8x,

{4}6,6,78,78,
{4}1,1,{2}12,
{4}3,3,12,12,
{4}8,8,{2}78,
{4}7,7,7,78,
{4}6,6,6,56,
{4}4,4,4,34,
{4}2,2,{2}1x/2x,

{4}1,1,2,2,
{4}3,3,4,4,
{4}5,5,6,6,
{1}7x/8x,
{4}8,8,7,7,
{4}6,6,5,5,
{4}4,4,3,3,
{1}1b/2b,

{2}3h[2:1],4h[2:1],
{2}5h[2:1],6,
{2}6h[2:1],5h[2:1],
{2}4h[2:1],3,
{2}2h[2:1],3h[2:1],
{2}4h[2:1],5,
{2}7h[2:1],6h[2:1],
{2}5h[2:1],4,

{2}34,12,
{2}78,56,
{2}45,{4}36,36,
E

EXPERT

(220)
{1},
{2},{8}4x/5x,4x/5x,{4}4x/5x,

{4}3,34,{8}6,6,{4}56,
{4}2,24,{8}7,7,{4}57,
{4}5h[4:1]/6,7,3/4h[4:1],2,
{8}1,1,{4}8,18,7,
{4}6,57,{8}3,3,{4}24,
{4}6,57,{8}3,3,{4}24,
{4}6h[4:1]/8,5,1/3h[4:1],4,
{8}6,6,{4}46,{8}35,35,{4}3b/5b,

{1}4x-7[2:1],
{1}5x-2[2:1],
{1}5x-1[2:1],
{1}8bx,

{2}4/7h[4:5],{4}5,5,
{4}4,4,45,{8}3,3,
{2}2h[4:5]/4,{4}4,4,
{4}5,5,45,{8}6,6,
{2}5/6h[1:3],4-1[2:1],
{2},1x,
{2}7bxh[4:1],8bxh[4:1],
{1}A3/A4/B3/B4/D4/E4f,

{8}2-4[8:1],,,5,,,{4}56,
{8}7-5[8:1],,,4,,,{4}34,
{8}2-5[8:1],,,6,,,{4}5x/7,
{8}8-4[8:1],,,3,,,{4}2/4x,
{2}1-5[8:1],8-4[8:1],
{2}2-5[8:1],7-5[8:1],
{8}2,2,{4}24,{8}7,7,{4}57,
{4}1b/8b,2b/7b,{2},

{2}4h[1:1],{4},3,
{2}3h[1:1],{4},2,
{2}2h[1:1],{4},1,
{2}1h[1:1],{4},8,
{2}8h[1:1],{4},7,
{2}7h[1:1],{4},6,
{2}6h[1:1],{4},5,
{4}5,4,{2}45,

{4}24,45,57,{8}78,78,
{4}78,16,25,34,
{4}57,45,24,{8}12,12,
{4}12,38,47,56,
{8}3bx/4bx,,,1bx/2bx,,,7bx/8bx,,
{8},5bx/6bx,,,{4}45,36,
{4}35,{8}6,56,,3,{4}34,
{4}45,1b/8b,{2},

{2}7-4[8:1]/8,1/2-5[8:1],
{2}7-4[8:1]/8,1/2-5[8:1],
{2}6-1[8:1],3-8[8:1],
{2}6-1[8:1],3-8[8:1],
{4}7h[4:1],{8}5,5h[4:1],,4h[4:1],,2h[4:1],
{8},1-4[4:1]*-6[4:1],{4},{2},
{4}3h[4:1],{8}1,1h[4:1],,8h[4:1],,6h[4:1],
{8},5w1[4:1],{4},{2},

{2}1x/2x^5[8:1],7^4[8:1]/8,
{2}1/2^5[8:1],7^4[8:1]/8,
{2}3^8[8:1],6^1[8:1],
{2}3^8[8:1],6^1[8:1],
{4}2h[4:1],{8}4,4h[4:1],,6h[4:1],,8h[4:1],
{8},2h[4:1],,4,{4}4h[4:1],5<4[2:1],
{1},
{4}45,18,{2}2b/7b,

{8}3/4h[8:3],,,1,,,{4}28,
{8}5h[8:3]/6,,,8,,,{4}17,
{8}3h[8:3]/4,,,8,,,{4}78,
{8}5h[8:3]/6,,,1,,,{4}1pp5[1:1]*qq5[1:1]/2,
{1},
{2},{4},6,
{8}6h[8:3],,,5h[8:3],,,{4}4,
{8}2b/4b,,,5b/7b,,,{4}1b/8b,

{2}2x^5[4:1],{4}6,6,
{2}6^1[4:1],{4}2,2,
{2}3^8[4:1],{4}7,7,
{2}7^4[4:1],{4}3,3,
{2}2^7[4:1],{4}6,6,
{2}6^3[4:1],{4}2,2,
{1}1^4[4:1]/8^5[4:1],
{1}B3/B6/Cf,

{4}2,4,{2}35,
{4}7,5,{2}46,
{4}25,16,{8}78,7<2[8:5]*p2[8:5]/8,
{1},
E

MASTER

(220){1},{2},
1bxs5[4:1]b,{8}7,,78,,6,6,4,,2,,12,,3,3,5,,7,,78,,6,6,4,,34,,25,,47,,56,,
3,,24,,1,1,7,,6,,57,,8,8,2,,34,,24,,56,,57,,8x,1x,2x,3x,4x,5x,6x^3-7^2[2:3]/2x^7-3^6[2:3],,{1},,
{2}37,2h[4:1]/6h[4:1],{4}78,16,25,34,

{8}2h[8:3]/5,,,4,{4}4,,34,12,78,56,{8}7h[8:3]/4,,,5,{4}5,,57,56,24,34,
{8}2h[8:3]/5,,,6,{2}6h[2:5],{1}4-1[4:1],1x>8[2:1]b,{4}A4f/B4/D4/D5/E4/E5,,1b/8b,36,

{8}45,,2,2-6[8:1],,7,7,,56,,7,7-3[8:1],,2,2,,1-5[8:1],,6,6,,47,4/7-5[8:1],,3-1[8:1],,8-4[8:1],,3x,,2x,,
2pp6[2:1]/4,,5x,5x,,8,8,,7qq3[2:1],,4x,4x,,1,1,,{4}26,1-5[8:1]/8-2[8:1],,3x/6x,{8}5,5,4,4,{2}3bhx[2:1]/6bx,

{4}Ch[1:3],,,B1,D2,,,B3,D3,,,B4,D4,,,B8,Ch[1:2]/D8,,,B6,D7,,,B5,D6,,,78,78,12,34,56,

78,1b-5[8:1]b/2b-5[8:1]b,1b/2b,4x/6x,4x/6x,56,56,34,34,12,78,{1}5q4[8:3]/6<3[8:3],{4}3x/4x,
{8}5^8[4:1],,,2,,,1^4[4:1],,,5,,,46,,28,,1,1,7,7,4,4,5,5,3,,34,,2xv5[8:1],5xv2[8:1],,,

7x,,7-4[8:1]/8-4[8:1],,78,,3,3,,2-5[8:1]/1-5[8:1],,2x/1x,,,57,,
56,,7-4[8:1]/8-4[8:1],,7x/8x,,3,3,,2-5[8:1]/1-5[8:1],,2x/1x,,,46,,
45,,6,6-2[8:1],,3-7[8:1],,8-4[8:1],,1-5[8:1],,6x,,,47,,
2,,18,18,,36,,27,,4^1[4:1]b/5^8[4:1]b,,4x/5x,{2},

{8}12,,3-1[8:1]/8-4[8:1],,38,,5,5,,4-8[8:1]/7-5[8:1],,47,,,6x,,
87,,6-8[8:1]/1-5[8:1],,61,,4,4,,5-1[8:1]/2-4[8:1],,52,,,3x,,
25,,16,16,,8-4[8:1]/3,,1-5[8:1],,6-2[8:1],,3,3h[4:1],,{1}8xz4[8:3]*-5[8:3],{8}2,2h[8:5],4,,5,,{2}8b,

{8}1-5[8:1],,6,6^1[8:1],,4,4h[4:1],,8-4[8:1],,3,3^8[8:1],,5,5h[4:1],,
1h[4:1],,3,3h[4:1],,4,4,,5h[4:1],,6,6h[4:1],,7,7<1p8[4:5],,{1}3h[2:3],{2},{8},,7,7,
5,,24,24,,57,57,,4bx-7[8:1],,,5bx-2[8:1],,,{4}1bxw5[4:1]b,

,,7-3[8:1],3,2-6[8:1],7,8-4[8:1],3,2h[4:1],4,5-1[8:1],3,4-8[8:1],6,7V53[4:1],3,
2,2,6-2[8:1],4,3-7[8:1],5,6V82[4:1],4,4,2-7[4:1]b/3-6[4:1]b,,,8,1v4[8:1]/7v4[8:1],1b/7b,,

1-5[8:1]/7,8-4[8:1],3h[4:1],{8}5,5,,47,47,,3,3,5,,
4-2[8:1]/5-7[8:1],,4x/5x,,18,18,,{1}A3/D4/A4/D5/A5/D6/A6/E4/B4/E5f/B5/E6,,,,E

Re:MASTER


  • MASTER譜面を追加しました。修正等ありましたらよろしくお願いします。 -- けもがみ (2026-03-22 06:30:27)
名前:
コメント:

タグ:

+ タグ編集
  • タグ:
最終更新:2026年07月18日 16:06