アットウィキロゴ

お願いマッスル

アーティスト 紗倉ひびき(CV:ファイルーズあい)&街雄鳴造(CV:石川界人)

BPM BASIC ADVANCED EXPERT MASTER Re:MASTER
132 3 6 8+ 12+ -

EXPERT MASTER Re:MASTER
譜面制作者 シチミヘルツ はっぴー -

BASIC

(132){1},
{4},4x,4x,,
{2}4,4,
{4},5x,5x,,
{2}5,5,
{4},4x,4x,,
{2}4,4,
{2}3x/4x,5x/6x,
{1}4h[2:1]/5h[2:1],

{2}4,4,
{2}3,3x,
{2}2,2,
{2}1,1x,
{2}8,8,
{2}7,7x,
{2}6,6,
{2}45,4b/5b,

{2}3,3,
{2}4,4x/5x,
{2}6,6,
{2}5,4x/5x,
{2}3,34,
{2}6,5x/6x,
{4}4,4,45,,
{4}5,5,4b/5b,,

{1}B3,
{1}B2,
{1}B1,
{1}B8,
{1}B7,
{1}B6,
{1}Cfh[1:1],
{1},

{4}8,8,8,,
{2}78,78,
{4}6,6,6,,
{2}56,5b/6b,
{4}4,4,4,,
{2}34,34,
{2}5x/6x,3x/4x,
{4}5,4,5b,,

{2}6,6,
{4}7,7,7b,,
{2}8,8,
{4}1,1,1b,,
{2}2,2,
{4}3,3,3b,,
{1}4-1[4:3]/5-8[4:3],
{2},2x/7x,
E

ADVANCED

(132){1},
{4}3x,3,3h[4:1]/4h[4:1],,
{4}6,6,5h[4:1]/6h[4:1],,
{4}3,3,3h[4:1]/4h[4:1],,
{4}5,5,4h[4:1]/6h[4:1],,
{4}7x,7,7h[4:1]/8h[4:1],,
{4}2,2,1h[4:1]/2h[4:1],,
{2}7x/8x,1x/2x,
{4}8,1,27,,

{4}6,6,5,5,
{4}4,4,35,,
{4}3,3,4,4,
{4}5,5,46,,
{4}7,7,8,8,
{4}1,1,28,,
{4}2,2,1,1,
{4}18,18,2b/7b,,

{4}3,3,34,,
{4}6,6,56,,
{4}3,3,34,,
{4}5,5,46,,
{4}7,7,78,,
{4}2,2,12,,
{4}7,7,78,,
{4}18,18,2b/7b,,

{2}B3,B4,
{1}Ch[2:1],
{2}B7,B6,
{2}B5,C,
{2}B1,B2,
{1}Ch[2:1],
{2}B4/B5,B3/B6,
{1}Cf,

{4}2x,12,7,78,
{4}6,5,4h[4:1]/6h[4:1],,
{4}7,78,2,12,
{4}3,4,3h[4:1]/5h[4:1],,
{4}3,34,6,56,
{4}7,7,8,8,
{2}1x/2x,7x/8x,
{1}1x-5[8:3]/8x-4[8:3],

{4}3,3,4,4,
{4}5,5,46,,
{4}7,7,8,8,
{4}1,1,28,,
{4}3,3,4,4,
{4}5,5,46,,
{4}7,7,8,8,
{4}18,18,27,,
E

EXPERT

(132){1},
{8}8,8,{4}17,{8}56,47,,35,
{4}35,4/6<4[8:3],,,
{8}1,1,{4}28,{8}34,25,,46,
{4}46,35,47,2b/6b,
{8}8,8,{4}17,{8}56,47,,35,
{4}35,46,25,47,
{4}34,18,56,1V35[4:1]/8V64[4:1],
{2},{4}27,2b/7b,

{8}5,5,{4}56,{8}3,3,{4}24,
{4}B2/B3/E2,B6/B7/E8,E4/E6,Cf/E3/E7,
{8}1,2,{4}34,{8}6,6,{4}57,
{4}B6/B7/E8,B2/B3/E4,B4/B5/E5,Cf/E3/E7,
{8}8,7,{4}56,{8}3,3,{4}24,
{4}B2/B3/E4,B6/B7/E6,B4/B5/E5,Cf/E3/E7,
{8}12,12,{4}38,{8}78,78,{4}16,
{4}E4/E5/E6,C/E3/E7,{8}18,1b/8b,{4},

{4}6h[2:1],5,5,{8}4,4,
{4}3h[4:1],4,25,{8}1x,1x,
{4}2h[2:1],4,4,{8}5,5,
{4}6h[4:1],5,47,{8}8x,8x,
{4}7h[2:1],5,5,{8}4,4,
{4}3h[4:1],4,25,{8}1x,1x,
{4}2h[4:1],4,7h[4:1],5,
{8}1,1,8,8,{4}2b/7b,1x,

{1}6<2[2:1],
{1}3>7[2:1],
{1}6V48[8:5],
{4}1,1,18,27,
{1}4h[2:1]/6<2[2:1],
{1}3>7[2:1]/5h[2:1],
{4}56,47,34,25,
{4}1b/8b,2^5[4:1]/8p4[16:3],{2},

{8}34,2,{4}18,{8}78,16,,8x,
{4}8x-6[8:1],1-5[8:1],8,3b/7b,
{8}56,7,{4}18,{8}12,38,,1x,
{4}1x-3[8:1],8-4[8:1],1,2b/6b,
{8}34,2,{4}18,{8}78,16,,8x,
{4}8x-6[8:1],1-5[8:1],8,3b/7b,
{4}4x/6h[4:1],1x,3h[4:1]/5x,8x,
{2}4p8[4:1]/6h[4:1],{4}5,2b/7b,

{8}6,6,{4}57,{8}3,3,{4}24,
{4}B2/B3/E2,B6/B7/E6,B4/B5/E5,Cf/E3/E7,
{8}1,2,{4}34,{8}6,6,{4}57,
{2}1V35[4:1]/8V64[4:1],{4},2b/7b,
{8}3,3,{4}24,{8}6,6,{4}57,
{4}B5/B6/E7,B1/B2/E3,E4/E5/E6,Cf/E3/E7,
{8}78,16,{4}25,{8}12,38,{4}47,
{4}B1/B8/E2/E8,B4/B5/E4/E6,{2}Cf/E3/E7,
E

MASTER

(132)
{2},{24}27,,,4,5,4,{8}5,18,
{4}3bv1[8:1]/7bv1[8:1],3b^5[16:1]/7b^5[16:1],3b/7b,{8}12,8,
{4}5h[8:1]/7h[8:1],4h[8:1]/2h[8:1],5h[8:1]/7h[8:1],4h[8:1]/2h[8:1],
3bv1[8:1]/7bv1[8:1],3b^5[16:1]/7b^5[16:1],3b/7b,{8}12,8,
{4}5h[8:1]/7h[8:1],4h[8:1]/2h[8:1],5h[8:1]/7h[8:1],4h[8:1]/2h[8:1],
3bv1[8:1]/7bv1[8:1],3b^5[16:1]/7b^5[16:1],3b/7b,{8}12,8,
{4}5h[8:1]/7h[8:1],3h[8:1]/2h[8:1],6h[8:1]/7h[8:1],{8}24,3^8[8:1],
{16}6b,,5x,5x,5x,5x,5x^8[8:1],,3b,,4x,4x,4x,4x,4x,,
27,,1,8,,36,36,,45,,18,,{2}3bq8[8:1]/6bp1[8:1],

4h[4:1]/6^1[8:1],1qq6[8:3]/8pp3[8:3],{8},,4x/5x,1x/8x,{2}3b-1[8:1]/6b-8[8:1],
4-1[8:1]/5-8[8:1],{4}3x/6<3[4:1],3p6[4:1],5,{8}4,3,{4}1b/5b,
1h[8:1]/8h[8:1],3-1[8:1]/6-8[8:1],,2x/7x,
{8}6h[8:1],8h[8:1],1h[8:1],3h[8:1],5,6,{4}5-1[8:1]/6-8[8:1],
5x/6x,4-8[8:1]/3-1[8:1],4x/3x,46,{8}18,27,36,45,E2/E8,B3/B4/Cf/B5/B6,,,

7^4[8:1],7,8v3[8:1],8,7^4[8:1],7,8v3[8:1],8,7^4[8:1],7,8,8,26,3b/5b,1b/7b,,
4-2[8:1],4,5-7[8:1],5,4-2[8:1],4,5-7[8:1],5,4-2[8:1],4,5,5,46,57,1b/8b,1b/8b,
3x^8[8:1]/4xp7[8:1],34,,,8x^3[8:1]/7xq4[8:1],87,,,3x^8[8:1]/4xp7[8:1],34,,,1x/6x,4b/5b,2b/7b,,
3v1[8:1]/6v8[8:1],36,,,2v4[8:1]/7v5[8:1],27,,,3v1[8:1]/6v8[8:1],36,,,1x/8x,4b/5b,2b/7b,,

3h[4:1],1,4h[4:1],1,3h[4:1],1,5h[4:1],1,{4}4h[2:1],1,6h[2:1],8,
{8}5h[4:1],8,6h[4:1],8,5h[4:1],8,6,3,
{4}1h[8:1]/8h[8:1],4h[8:1]/5h[8:1],1h[8:1]/8h[8:1],{2}4^1[8:1]/5^8[8:1],
4-1[8:1]/5-8[8:1],2V48[4:1]/7V51[4:1],{8},,3x/6x,,27,5,
{2}4w8[8:1],5w1[8:1],{4}B2/B3/Cf/B7/B8,1>5[8:1],{32}B8,Cf,B4,,,,,,{4},

{8}3/5-7[16:1],4,3-1[16:1],4,5^7[16:1],4,3^1[16:1],4,5pp5[4:1]*qq5[4:1],4,{4},,37,
{8}6/4-2[16:1],5,6-8[16:1],5,4^2[16:1],5,6^8[16:1],5,4,5,{4}4-8[8:1]/5-1[8:1],45,1b/8b,
{8}3/5-7[16:1],4,3-1[16:1],4,5^7[16:1],4,3-1[16:1],4,5pp5[4:1]*qq5[4:1],4,{8},,,,46,3^8[8:1],
{16}4b,,6x,6x,6x,6x,6x^1[8:1],,5b,,3x,3x,3x,3x,3x,,
18,,8,1,,26,26,,35,,26,,{2}7V53[8:1]/8v2[8:1],

4V28[8:1]/5v7[8:1],{8}1x/8x,,6h[4:1],8,3h[4:1],1,5h[4:1],4,Cf,,
1-4[8:1]/8-5[8:1],18,,,36,45,{16}27,1,1,8,{8}2,35,{4}4^1[8:1]/6v1[8:1],,2b/5b,
{8}36,27,{4}1-6[8:1]/8-3[8:1],1x/8x,2b/7b,
{8}1x/8x,2x/7x,3x/6x,4x/5x,{4}E4/B3/Cf/B6/E6,1p5[8:1]/8^5[8:1],
1x/8x,5p1[8:1]/4^1[8:1],5x/4x,1x/8x,{8}18,27,36,45,{1}B3/B2/B1/Cf/B8/B7/B6,,,,E

Re:MASTER


  • MASTER譜面を追加しました。修正等ありましたらよろしくお願いします。 -- けもがみ (2026-03-22 13:37:04)
名前:
コメント:

タグ:

+ タグ編集
  • タグ:
最終更新:2026年09月10日 21:31