アットウィキロゴ

ようこそジャパリパークへ〈でらっくす〉

アーティスト どうぶつビスケッツ×PPP「けものフレンズ」

BPM BASIC ADVANCED EXPERT MASTER Re:MASTER
170 4 7 9 11+ -

EXPERT MASTER Re:MASTER
譜面制作者 華火職人 はっぴー -

BASIC


ADVANCED


EXPERT


MASTER

(170)
{4},{3}3x,,6x,,{12}1x,,,,,
{8}7,8-4[8:1],1,2h[4:1],,4,5,6/4^1[8:1],,8,8,2x/7x,,18,18,,
{4}7-5[8:1]/8-4[8:1],7x/8x,2-4[8:1]/1-5[8:1],2x/1x,8<4[4:1],4>8[4:1],8,4,
{16}3x/6x,,3,4,2,,8,,1,,6,5,7,,1,,8,,3,4,2,,8,,1,,6,5,7,,1,,8,,3,4,2,,8,,1,,6,5,7,,3,,
{2}4h[4:1]/5h[4:1],B2/B3/Cf/B6/B7,

{8}6x,7,8,1,{16}2hx[16:3],,,3h[16:3],,,4x^1[8:1],,{8},5,6,7,{16}7hx[16:3],,,6h[16:3],,,5,,
{8}4,3>5[8:3],4,5,{2},{8}5,6<4[8:3],5,4,{2},
1-5[8:1]/8-4[8:1],{16}3/6h[16:3],,,5,,,47,,,,6,5,7,,3,4,2h[16:3],,,4,,,25,,
{8}1,8<2[8:3],1,2,{2},{4}E8/E1/E2,E6/E5/E4,E7/Cf/E3,,

{8}1,8,7^4[8:1],,1,1,8,8,1,2,3-8[8:1]/6-1[8:1],,,,36,,
45,,4-1[8:1],5,6x,,8x,{4}5x/7x,2x/4x,3x/7x,1x/5x,B1/B8/Cf/B4/B5,,
{8}18,18,,5>1[4:1]/6,,8h[8:3],,,1,1,,8,1,
17,,28,{2}2v5[8:1]/8v5[8:1],{8}3x/7x,,2x/8x<1[8:3],2x,1x,{2},{4}45,E7,C,E3,

{8}78,16,25,3/4-7[8:1],,2pp5[8:3],2,7,,8,8,3x/7x,,45,45,,
{4}1-5[8:1]/2-4[8:1],1x/2x,8-4[8:1]/7-5[8:1],8x/7x,{8}18,27,36,45,{2}B2/B3/Cf/B6/B7,
{8}17,17,28,{2}2-6[8:1]/8-4[8:1],1v4[8:1]*v6[8:1],3v1[8:1]/7v5[8:1],{8},
{4}34,2^5[8:1]/8^5[8:1],,12,56,1v4[8:1]/7v4[8:1],,78,

2b/7b,,{8},6,5,4,{4}3^6[4:1],6^1[4:1],1^4[4:1],4,
{16}7h[16:3],,,6h[16:3],,,5,,2h[16:3],,,3h[16:3],,,4,,{4}4pp4[4:1]*qq4[4:1],,,{8},78,
16,,47,5-1[8:1]/6,,8,,21,83,,52,4-8[8:1]/3,,1,,18,
27,,27,{2}1^4[8:1]/8^5[8:1],{8}16,{2}1h[4:1]/6h[4:1],8h[4:1]/3h[4:1],
{8}2b/7b,,6,6,3,3,5,5,{2}4h[4:1]/5h[4:1],B2/B3/Cf/B6/B7,

{8}7-4[8:1],7,8,1,2-5[8:1],2,1,8,7-4[8:1],7,8,1,2,2,34,,
{2}5-1[8:1]/6-8[8:1],4-8[8:1]/3-1[8:1],{8}5^8[8:1],5,4,3,2hx[8:1]/8hx[8:1],,7hx[8:1]/1hx[8:1],,
2^5[8:1],2,1,8,7^4[8:1],7,8,1,2^5[8:1],2,1,8,7,7,65,,
{2}2-5[8:1]/8-5[8:1],7-4[8:1]/1-4[8:1],{8}8h[2:1],,2,3,4x,,2x/6x,,

3-8[8:1],3,4,5,6-1[8:1],6,5,4,3-8[8:1],3,4,5,6,6,78,,
{2}4-8[8:1]/3-1[8:1],5-1[8:1]/6-8[8:1],{8}4^1[8:1],4,5,6,7hx[8:1]/1hx[8:1],,2hx[8:1]/8hx[8:1],,
3^8[8:1],3,4,5,6^1[8:1],6,5,4,3^8[8:1],3,4,5,6,6,78,,
{4}4x/6x,3x/5x,1-5[4:1],5<4[8:3],4,,1b,1b/8b,
E6/B5/B4/E4,,E8/B8/B1/E2,{8},36,,18,18,,{1}B2/B3/Cf/B6/B7,,,,E

Re:MASTER


  • MASTER譜面を追加しました。修正等ありましたらよろしくお願いします。 -- けもがみ (2026-03-22 10:30:44)
名前:
コメント:

タグ:

+ タグ編集
  • タグ:
最終更新:2026年03月22日 10:30