アットウィキロゴ

マツケンサンバⅡ

アーティスト 松平健 [covered by 光吉猛修]

BPM BASIC ADVANCED EXPERT MASTER Re:MASTER
133 3 6 9+ 12+ -

EXPERT MASTER Re:MASTER
譜面制作者 Jack じゃこレモン -

BASIC

(133.2)
{1},1h[1:1],,1,1,8h[1:1],,8,8,8-4[4:3],,1-5[4:3],,

{2}6,6,7,7,8,8,8/1,,1,1,2,2,3,3,4-1[4:3]/5-8[4:3],,,,{1}8h[1:1]/7h[1:1],,6h[1:1]/5h[1:1],,4h[1:1]/3h[1:1],,2h[1:1]/1h[1:1],,1b/8b,

{4}1,1,1,,2,2,2,,3x/4x,3x/4x,3x/4x,,4/5,,,,5,5,5,,6,6,6,,7x/8x,7x/8x,7x/8x,,8xh[1:1]/1xh[1:1],,,,,,,,

{4}8,8,8bx,,7,7,7bx,,6,6,6,,5,5,5,,5x/4x,5x/4x,5x/4x,,3,3,3,,2,2,2,,1,1,1,,8/1,8/1,8/1,,8h[1:1]/1h[1:1],,,,,,,,

{1}1b/8b,B8/B1,B7/B2,Cf,

{4}8,8,8,8,7,7,7,,6x/5x,6x/5x,6x/5x,,5/4,,,,4,4,4,4,3,3,3,,2x/1x,2x/1x,2x/1x,,8h[1:1]/1h[1:1],,,,,,,,

{4}1,1,1b,,2,2,2b,,3,3,3,,4,4,4,,4x/5x,4x/5x,4x/5x,,6,6,6,,7,7,7,,8,8,8,,8/1,8/1,8/1,,8-5[4:3]/1-4[4:3],,,,,,,,

{1}4b/5b,B5/B4,B6/B3,B7/B2/Cfh[1:1],
E

ADVANCED

(133.2)
{1},2-5[4:3],,7-4[4:3],,2q5[4:5],,7p4[4:5],,{2}3h[2:1],4,6h[2:1],5,4h[2:1],5,4xh[2:1]/5xh[2:1],,

{4}3,3,3/4,,2,2,2/1,,8,8,8/7,,6/5,6/5,6/5,,6,6,6/5,,7,7,7/8,,1,1,1/2,,3/4,3/4,3/4,,4h[2:1]/5h[2:1],,,,B2,B3,B4,,B7,B6,B5,,B2,B3,B4,B5,B6,B7,C,,B8,B7,B6/B5,,B1,B2,B3/B4,,B6,B5,B4,B3,Ch[1:1],,,,,,,,

{4}7,7,8,8,1,1,1/2,,{8}2x,2x,2x,,{4},,1h[2:1]/8h[2:1],,,,7,7,6,6,5,5,4/3,,{8}3x,3x,3x,,{4},,4h[2:1]/5h[2:1],,,,4x/5x,4x/5x,4bx/5bx,,

{4}6,6,7/8,7/8,1,1,1/2,,3,3,2/1,2/1,8,8,8/7,,8h[2:1]/1h[2:1],,,,7,7,6/5,6/5,4,4,4/3,,2,2,3/4,3/4,5,5,5/6,,6,6,7,7,8h[2:1]/1h[2:1],,,,

{2}8x-5[4:3]/1x-4[4:3],,,,4/5,4/5,4h[2:1]/5h[2:1],,

{4}6,6,6/5,6/5,7,7,7/8,,{8}1x,1x,1x,,{4},,1h[2:1]/2h[2:1],,,,3x,3x,3/4,3/4,2,2,2/1,,{8}8x,8x,8x,,{4},,8h[2:1]/7h[2:1],,,,6x/5x,6x/5x,6b/5b,,

{4}6,6,7/8,7/8,1,2,3/4,,3,3,2/1,2/1,8,7,6/5,,5h[2:1]/4h[2:1],,,,6,6,7/8,7/8,1,2,3/4,3/4,2x,1x,8x/7x,8x/7x,6,6,5/4,,3/6,3/6,2/7,2/7,1h[2:1]/8h[2:1],,,,

{2}8x^5[4:3]/1x^4[4:3],,,,3bx/4bx,5bx/6bx,4h[2:1]/5h[2:1],,Cf,
E

EXPERT


MASTER

(133.2){1},{4}2hx[4:3]/6hx[4:7],,,,3,4,5,4,7hx[4:3]/3hx[4:7],,,,6,5,4,5,2hx[4:3]/6hx[4:7],,,,3,4,5,4,7hx[4:3]/3hx[4:3],,,,4/6,3/5,{16}3,4,,4,3,,4/6,,{1}7x>4q6[2:3]/5hx[4:7],{4},,,{8},4,{4}3xq4[2:1]/5hx[4:3],,,{8},6x,{16}8hx[8:1]/5hx[8:1],,,3hx[8:1]/6hx[8:1],,,1x/4x,,{8},2,3,4,

{8}5xq2[4:1]/6x<1[4:1],,,,,4,5,6,7xq4[4:1]/8x>3[4:1],,,,,6,7,8,1/2-5[8:1],8-5[8:1],,,,4/6,3/7,2/8,1x-4[8:1],,1x<6[8:1]/8x,,1xw5[8:1]/2x,,1x,,{16}1/2,,,4/5,,,7-4-6[4:1]/8-3-1[4:1],,{2},{16}8/7,,,5/4,,,2-5-3[4:1]/1-6-8[4:1],,{2},{16}1/2,,3,4,,,{8}5/7h[2:1],,8,1,2,{1}7xqq8[2:1]/3xqq4[2:1],{16}3hx[8:1]/6hx[8:1],,,4hx[8:1]/7hx[8:1],,,{8}5hx[8:3]/8hx[8:3],,,,,

{16}4x/6x,,,3,4,,4,,2/5,,,6,5,,5,,4/7,,,3,4,,4,,2/5h[8:3],,,,2,,3,,{2}4-2[8:1]/5-2[8:1],8-6[8:1]/1-6[8:1],{16}5h[2:1],,E4,E3,E2,E1,E8,E7,{4}E6,2x/7x,{8}6z2[8:3],,2,2>6[4:1],,1,1,,3s7[8:3],,7,7<3[4:1],,8,8,,7-3[8:1],8-4[8:1],,,5,2/6,{16}1-4[8:1],1,,8,,,,,6,4,6,4,5,3,5,3,4,2,4,,3b/5b,,,1b/8b,,,4hb[8:3]/7hb[8:3],,{2},

{16}6x<1[8:1],,5,,4,4,,3>8[8:1],,4,4,,5,,,,6x<1[8:1],,5,,4,4,,3>8[8:1],,4,4,,5,,,,6,6,6,6,{4}6-3-5[4:1]*-1-7[4:1],,,{16}4/6,,,1/8,,,3h[4:1]/5h[4:1],,,,,,4/6,,,,3x>8[8:1],,4,,5,5,,6<1[8:1],,5,5,,4,,,,3x>8[8:1],,4,,5,5,,6<1[8:1],,5,5,,4,,,,3b,3b,3b,3b,{4}3b-6-4[4:1]*-8-2[4:1],,,{16}5b/3b,,,8b/1b,,,6b<1[8:1]/4b>1[8:1],,{2},{16}7,7,8,8,,1/6,,2/7,2/7,,3>8[8:1]/8h[4:1],,,,,,{8}6x,6pp6[4:1]*qq6[4:1],,,,,,5/7,4x-8pp2[2:1]*-8qq6[2:1],3/5,,,,,,7/8,{16}5x/6x,,3,4,,2,1,,8x/7x,,6,5,,3,4,,{8}2x-6[8:1],2,1,8,{16}7/5h[16:3],,,4h[16:3],,,2,,1b/5b,,,3b/6b,,,8b/4b,,,,6,5,6,5,6,,

{4}7xV51[4:1]/8x-4-2[4:1],,{16},,3h[4:1]/7,,,,4,,{4}2xV48[4:1]/1x-5-7[4:1],,,1/2-6[8:1],2x/5x-1[8:1],4-8[8:1]/5,4/7,2/6,{8}1/8<5[8:1],,2,3>8[8:1],,5,6>1p7[4:3],,{1}2h[4:3],{16}5/6,,,3/4,,,1-5[8:1]/8-4[8:1],,{4},{8},3b/6b,{1}5bh[4:7]/8bh[4:7],{4},,,{8},4x/7x,{16}3x/6x,,2,1,2,,2,1,,1/8,,7,8,,1/8,,2x/3x,,,5x-8[8:1]b/4x-2[8:1]b,,,4x/5x,,,,,,1/7,,,,

{16}3x>8[8:1],,4,,5,5,,6<1[8:1],,5,5,,4,,,,3x>8[8:1],,4,,5,5,,6<1[8:1],,5,5,,4,,,,1/2,1/2,1/2,1/2,{4}1-5[8:1]/2-6[8:1],1x-7[8:1]/2x-4[8:1],,{16}5/6,,,1/8,,,3h[4:1]/4h[4:1],,,,,,5/6,,,,7x<4[8:1],,8,,1,1,,2>5[8:1],,1,1,,8,,,,7x<4[8:1],,8,,1,1,,2>5[8:1],,1,1,,8,,,,8b/7b,8b/7b,8b/7b,8b/7b,{4}8b-4[8:1]/7b-3[8:1],8x-2[8:1]/7x-5[8:1],,{16}4b/3b,,,8b/1b,,,4b>1[8:1]/6b<1[8:1],,,,,,,,,,2,2,1,1,,3/8,,2/7,2/7,,6<1[8:1]/1h[4:1],,,,,,{8}3x,3qq3[4:1]*pp3[4:1],,,,,,4/2,5x-1qq7[2:1]*-1pp3[2:1],6/4,,,,,,2/1,{16}4x/3x,,6,5,,7,8,,1x/2x,,3,4,,6,5,,{8}7x-3[8:1],7,8,1,{16}2/4h[16:3],,,5h[16:3],,,7,,8b/4b,,,6b/3b,,,1b/5b,,,,3,4,3,4,3,,

{4}2V48[4:1]/1-5-7[4:1],,{16},,6h[4:1]/2,,,,5,,{4}7V51[4:1]/8-4-2[4:1],,,3-7[8:1]/7,3b/5-1[8:1],2b-6[8:1]/5,2/4b,7/4b,{8}1/8<5[8:1],,2,3>7[8:1],,5,6>1p7[4:3],,{1}2h[4:3],{16}5/6,,,3/4,,,1-5[8:1]/8-4[8:1],,,,,,,,3b/6b,,{1}8bh[4:7]/5bh[4:7],{4},,,{8},4x/6x,{16}2h[16:3]/5-8[8:1],,,5x,{4},{16}7h[16:3]/4-1[8:1],,,4x,{24},,,8,7,6,{16}5,,3,,3/4,,6,5,,3,4,,5x/6x,,4b/8b,,2b/6b,,,,,,B8f,B4,B6f,,,B2f,,,,,,,E7f,,E5f,E4f,,,,,,,,,B7f,,A8f,A1f,,,E3f,,E5f,,,E7f,E8f,,,,,Cf/B1/B2/B3/B4/B5/B6/B7/B8,E

Re:MASTER


  • MASTER譜面を追加しました。修正等ありましたらよろしくお願いします。(BPM/最後のタッチ地帯は暫定です) -- Sugar (2026-05-04 14:39:47)
名前:
コメント:

タグ:

+ タグ編集
  • タグ:
最終更新:2026年08月13日 01:16