BASIC
ADVANCED
EXPERT
MASTER
(92.5){16}D7,,,E6,,,E5,,,E4,,,D3,,,,A3,,,A4,,,D5,,,A5,,,A6,,,,D7,,,E6,,,E5,,,E4,,,D3,,,,A3,,,A4,,,D5,,,A5,,,A6,,,,
{16}7-5[16:1],,,4,7,,4,,6-4[16:1],3,,,3/6,,,,2-4[16:1],,,5,2,,5,,3-5[16:1],6,,,6/3,,,,7-5[16:1],,,4,7,,4,,6-4[16:1],3,,,3/6,,,,2-4[16:1],,,5,2,,5,,{32},,3x/6x,,,,4,5,4,,4,,4-6[16:1],,,,{16}3,,4v7[16:1],,3,,4p8[16:1],,3,,4,,,,8,,1,,2V85[4:1]/8V25[4:1],2/8,,,,,,,,,{128}D4/D7,A6,A4,,{32},{16},{8},1-6-8[8:1]/8,3,2-4-1[8:1],3,7,8b,8b,7,{16}6,,5,5h[16:3],,4,4,,,3/4,,,2-7<4[8:1]/3-6>4[8:1],,,,
{8}2bx/3bx,,3bx-6<1[8:1]/2bx-7>1[8:1],1,2bx/3bx,,2bx/3bx,4,A7/A8/E8/B7/B8/D8,A5/A6/E6/B5/B6/D6,A3/A4/E4/B3/B4/D4,A1/A2/E2/B1/B2/D2,{24}6,,6,8,,8,1<8v6[8:1],,1,3,,,{4}3h[8:1]/1b>2v4[8:1],7h[8:1]/1b<8v6[8:1],3h[8:1]/1b>2v4[8:1],7h[8:1]/1b,{24}5/6,,,4,,4,5,,,3/6,,,{8}4v5[16:1]/5v4[16:1],A2/E2/E8/A7,4b/5b,,{24}2x/4x-1[16:1],,,5,,,4b/7,,,6h[8:1],,5,5-8[16:1],,2,4,,3,5b,,4,4h[2:1],,,2,,,8,,,3,,,7,,7h[12:3],,,5h[24:3],,,{96},6bx/4bx,5bx/3bx,2bx/4bx,{4}1bx/3bx,{24}7/5-8[16:1],,,4,,,5b/2,,,3h[8:1],,4,4-1[16:1],,7,5,,6,4b,,5,5h[8:3],,,8,,,2,,,4,,3/6,3/6,,,7b/8b,,,1b/2b,,,6>4-7>8-3>1[4:3]b,,,,,,
{4},{48}B3,B4,{24},{12},,{4},{48}B3,B4,{24},{12},,{4}5h[4:1],{48}B3,B4,{24},{12},,{4}6h[4:1],{48}B3,B4,{24},,{8}7x,7x,,{48}B3,B4,{24},,6,,,6h[12:4],,\,4,,4h[12:2],,,,,,,D7f,,A6,E6f,,E5f,E4f,,A3,D3f,,,{4}8pp1[8:1]*qq7[8:1],,{8}1/8-3-1[8:1],6,7-5-8[8:1],6,2,1bh[24:8],{24},,4,4h[24:5],,,2h[24:5],,,5h[24:5],,,3h[24:5],,,6h[24:5],,,4h[24:5],,,7h[24:2],,,5bpp7[16:1]/6b,,,,,,{8}5qq3[16:1]/3,4,5pp7[16:1]/7,6,3/5,4,5,4/6,{24}2,,4,3,,5,2,,4,3,,5,{32}2x,3x,5x,4x,2x,3x,5x,4x,{4}3x>6[8:3]b*p6[8:3]b,
(142){4}3b,,,{24}3x,4x,3x,4x,3x,4x,3x,4x,3x,4x,3x,4x,{2}3bxh[2:1],{32}8x,1x,2x,3x,4x,5x,6x,7x,8x,1x,2x,3x,4x,5x,6x,7x,{8}1bx/8bx,,,6<8[8:1],5-3-6-2-7-1[2:1]b,6x,5x,,,,,1x,1x>4[8:1]*<6[8:1],,{32}1bx,D2/D1,D3/D8,D7/D4,{8},1x>4[8:1]b*<6[8:1]b,,{48}1bx,D2/D1,A2/A8,D3/D8,A3/A7,D7/D4,{8},1hx[4:1],,{16},,7,8,6h[8:1],,5,5,,4,4,,{8}3v1[8:1]/7v5[8:1],3/7,,,4v2[8:1]/8v6[8:1],4/8,,,{16}3,4,2,4,1,5,8-4[8:1],5,7-3[8:1],,8bx,,7bx,,,,{32}2x/5x,1x/6x,7x/8x,,{8},{32}2x/5x,1x/6x,7x/8x,,{8},{32}2x/5x,1x/6x,7xh[8:3]/8xh[8:3],,{8},{16},,,{96}B8/A7,C,A6,B3,A5,A3,{32}A4f,,{16},{8},,
(92.5){24}2b,,2,1,,3,4,,1,8,,5,6-2[16:1],,8,7-3[16:1],,,6b,,,7b,,,2b,,2h[24:1],1h[12:1],,3h[24:1],4h[12:1],,1h[24:1],8h[12:1],,5h[24:1],6>7[8:1],,8,7,,,{48}6b/E6,E5,E4,E3,E2,E1,{8}E8,8-5[16:1]*z4[16:1],1/7,8b,{24},,4x/7x,,,2x/5x,,,3,4,,4,3h[4:3],,,{48}D8,A8,D1f,,,,D7,A6,D6f,,,,E8,E1,A1f,,,,E7,E6,A5f,,,,B1,E2,A2f,,,,B5,E5,A4f,,,,{4}3xqq1[16:1]/5x,{8}3bx/4bxpp6[16:1],5,4b/8bpp2[16:1],1,7bqq5[16:1]/8b,6,3b/7b,2,2/4,3/5,4/6,{24}3/7,,3V51[8:1]/7V15[8:1],,,2/6,2/6,,3bx/7bx,,,,,,,{8}2bx/7bxqq5[16:1],6,3bqq1[16:1]/7b,2,3b/4bpp6[16:1],5,8b/4b,1,{24}2,,2,4,,4,6b-3-6[8:3]b*<3>6[8:3]b,,,4/5,,,E
Re:MASTER
- MASTER譜面を追加しました。修正等ありましたらよろしくお願いします。 -- Sugar (2026-05-04 12:35:23)
最終更新:2026年05月04日 12:52