アットウィキロゴ

愛包ダンスホール

アーティスト HIMEHINA

BPM BASIC ADVANCED EXPERT MASTER Re:MASTER
141 3 6 9 13 -

EXPERT MASTER Re:MASTER
譜面制作者 サファ太 アマリリス -

BASIC

(141)
{1}1h[1:1],,1,1,8h[1:1],,8,1x/8x,8x,7,6,5,4,3,2,1/8,

{2}1,1,2,2,3,3,3/4,,5,5,6,6,7,7,7/8,,{1}7h[1:1]/8h[1:1],,6h[1:1]/5h[1:1],,4h[1:1]/3h[1:1],,2h[1:1]/1h[1:1],,B1,B8,B2,B7,Ch[1:1],,

{4}1b,1,1,,2,,2,,3,3,3,,3/4,,3/4,,5,5,5,,6,,6,,7,7,7,,7/8,,7b/8b,,8x,8,8,,7,,7,,6,6,6,,5,,5/4,,4,4,4,,3,,3,,2,2,2,,1bx/8bx,,,,

{1}1x-5[16:11],,8-4[16:11],,2-6[16:11],,7-3[16:11],,

{4}1b,1,1,,2,2,2,,3,3,3,,3/4,3/4,3/4,,5,5,5,,6,6,6,,7,7,7,,7/8,7/8,7b/8b,,8x,8,8,,7,7,7,,6,6,6,,5/4,5/4,5/4,,4,4,4,,3,3,3,,2,2,2,,1/8,1/8,1/8,,{2}1,1,1/2,1/2,3,3,4/5,4/5,5,5,5/6,5/6,7,7,8xh[2:1]/1xh[2:1],,2xb/7xb
E

ADVANCED

(141)
{2}3,3,4,4,5,5,5/6,,7,7,6,6,5,5,5/4,,{4}6,6,6/5,,7,7,7/8,,1,1,1/2,,3/4,3/4,3/4,,3,3,3/4,,2,2,2/1,,8,8,8/7,,5/6,5/6,5/6,,

{1}7-3[2:1],2-5[2:1],7-4[2:1],{4}3,3,3/4,,{1}2-5[2:1],6-1[2:1],2-6[2:1],{4}7,7,8/1,,7,7,7,,6,6,6,,5,5,5,,4/3,,4/3,,2,2,2,,3,3,3,,4,4,4,,4/5,,4/5,,{2}6h[2:1],5h[2:1],4h[2:1],3,3h[2:1],4h[2:1],5h[2:1],6,4h[2:1]/5h[2:1],,

{4}4x/5x,4x/5x,4x/5x,,3b,3,2,2,1,1,8/7,,6,6,7,7,8,8,1/2,,2,2,3,3,4,4,5/6,,7,7,6,6,5,5,4/3,,3,3,2/1,2/1,8,8,8/7,,6,6,7/8,7/8,1,1,1/2,,2,2,3/4,3/4,5,5,5/6,,7,7,6,6,5h[2:1]/4h[2:1],,,,

{4}B2,B3,B4,,B7,B6,B5,,B1,B2,B3,B4,B5,B6,B7,,1-5[2:1],,,,7-4[2:1],,,,2-5[2:1],,,,

{4}6,,5/4,,6,6,6/5,6/5,7,7,7/8,7/8,1,1,1/2,1/2,3,3,3/4,,3,3,3/4,3/4,2,2,2/1,2/1,8,8,8/7,8/7,6,6,6/5,,{2}6h[2:1],5,7h[2:1],8,2h[2:1],1,3h[2:1],4,{4}4/3,4/3,2,2,1/8,1/8,7,7,6/5,6/5,7,7,8/1,,,,

{4}8/7,8/7,1/6,,5/6,5/6,4/7,,4/3,4/3,5/2,,1/2,1/2,8/3,,1,2,3,4,5,6,7,8,1,2,3,4,4xh[2:1]/5xh[2:1],,,,Cf,
E

EXPERT

(141){1},
{2}6h[2:1],5h[2:1],{4}7,6,5,6,7h[2:1],,6h[2:1],,5h[2:1],,4,4,3h[4:1]/4h[4:1],,24,34,3h[4:1]/4h[4:1],,24,34,3h[4:1]/4h[4:1],,3h[1:1]/4,6xh[4:3],,,,4x/5x,
3,12,8,17,6,78,1,28,3,12,18,78,{8}6,6,5,,3,3,{4}4,3x/5x,2,17,5,46,7,28,4,6,57,3,24,{8}1,1,{4}8,2x/7x,,
3xh[4:7]/6x,6,4,4,5,5,4,5,6,56,4,34,2,1,38,47,6h[2:3],5,4,4,5,4,4,56,7,78,1,12,3,46,3bx/7bx,,
5-8[4:1],,4-1[4:1],,8,17,28,37,5-8[4:1],,4-1[4:1],,8,17,28,37,2h[4:1],4x,35,4bx/6bxh[1:1],5bx,2bx,5bx,3bx,{8}2,2,1,,7,7,{4}8,Cf/B2/B6,,8x,1x/7x,
2h[4:1]/6h[4:1],,B3/B4,B5/B6,{8}7,7,{4}8,16,25,{4}3h[4:1]/7h[4:1],,B5/B6,B7/B8,B1/B2,B3/B4,B5/B6,B1/E1/B8,{1}Ch[2:1],{4}1>4[4:1]/8<5[4:1],,,3bx/6bx,
34,17,56,28,37,26,57,18,12,56,78,34,25,46,{8}28,28,{4}2bx/8bx,34,17,56,28,37,26,57,1/2z6[2:1],,,,1x/7x,{8}8,8,1,1,{4}8x,7x<4[4:1]/1x>4[4:1],
,,56,34,78,12,56,34,57,18,24,18,47,8-5[4:1]/3-8[4:1],,,1bx/6bx,7v4b[4:1]/2v5b[4:1],,,1x/6x,38,1b/6b,34,5h[4:1],7h[4:1],8,{16}1xh[4:3]/8x,,,8xh[16:9],{4},,,7/2-4-1-5[4:3],
{1},{8}7,7,{4}8,56,45,3h[4:1]/4,1b,78,6-8-5-1[4:3],,,,2,{8}3,3,4,,56,,48,,7,7,5,,46,,37,,2,2,8,8,1,1,{4}8x<5b[4:1]/1x>4[4:1],,,{8}2x/7x,2bx/7bx,{4},
34,17,56,28,3h[8:1]/7h[8:1],2h[8:1]/6h[8:1],57,18,12,56,78,34,2h[4:1],1,{8}48,48,{4}4bx/8bx,34,17,56,28,3h[8:1]/7h[8:1],2h[8:1]/6h[8:1],57,1/2z6[2:1],,,,1x/7x,{8}8,8,1,1,2x/6x,2x/6x,6x-1[4:1]/2x-5[4:1],,
{4},,38,26,57,12,56,7h[1:1]/1-5-3-8b[4:3],,,,,78,12,56,34,16,7v5b[4:1]/2v4b[4:1],,,1x/6x,38,1b/6b,34,6h[4:1],8h[4:1],1h[4:1],3qq5[2:1],,,,8x,
34,1b/7b,56,28,4h[8:1]/7h[8:1],2h[8:1]/5h[8:1],78,12,34,78,56,12,3x/4x,56,{8}1,1,28,28,{4}3bx/7bx,56,23,7/8>6[2:1]*-3-6[2:1],,,,2x/8x,{8}7,7,5,5,6,,{16}3xh[4:3]/7x,,,7xh[16:9],{4},,,6-1b[8:1]/2-5[8:1],,,{1},,,,,,
E

MASTER

(141){1},
{4}4>1[4:1],6,5<8[4:1],3pp1[2:1],,7,6h[4:1],2,8<5[4:1],3,1>4[4:1],6,7p3[4:1],3,{8}1,1,{4}28,56,17,34,28,{8}7,5,6,4,5,3,3h[16:3],{16},4h[16:3],,,5,,5h[16:3],,,6h[16:3],,,7,,8,8,,1x/7x,,,56,,3,4,,4,3,,3,1,,2x/8x,,3x/7x-3[8:1],
{4},2,1-5[8:1],6,{8}8,8,2,,46,46,35,35,6/2-6[8:1],,7,,8-4[8:1],,3,,5,5,46,,3/7h[2:1],3,2,1,8-3[8:1],,4,,5-1[8:1],,2,,3,3,5,,17,17,28,28,1-6[8:1]/3,,5,,4-8[8:1],,7,,16,16,38,38,27,{16}4,5,,36,,2bx/7bx,
{8},3,3,1,4,1,5,36,2,24,5,3,14,14,{4}14,2q6[4:1],6-1[4:1],1q6[4:1],6<1[4:1],1>4[4:1],4<7[4:1],7,8,5h[8:1]/6h[8:1],4h[8:1]/5h[8:1],3h[8:1]/4h[8:1],1h[8:1]/2h[8:1],7h[8:1]/8h[8:1],2h[8:1]/8h[8:1],1h[8:1]/7h[8:1],2h[8:1]/8h[8:1],7p3[4:1],3v8[4:1],8p3[4:1],3>8[4:1],8<5[4:1],5,{8}2,3,45,,
2b/7b,,1s5[4:1]/2,3,{4}4,,2<7>2[2:1]/6h[8:1],5h[8:1],4h[8:1],5h[8:1],{8}27,,8z4[4:1]/7,6,{4}5,,7>2<7[2:1]/3h[8:1],4h[8:1],5h[8:1],4h[8:1],1-5[8:1]/2h[4:1],1x,8-4[8:1]/7h[4:1],8xq1>6[4:3],,,,3x,{8}2-7[8:1],2,4,,6-3[8:1],6,{4}8xpp4[2:1],,,{16},,5x,6x,7x,,4x/6x,,
4x/6x,,7,5,7,,6,6,,57,,6,{8}6,45,3qq5[8:3],3,6pp4[8:3],,,,,,{16}35,,2,4,2,,3,3,,24,,3,3,,45,,{8}8<6-4[4:1]*-4[4:1],8,,,,4x/5x,{4}4x/5<4[8:3],,,,36,{16}18,18,,45,,45,,27,{4}27,B4/B5/Cf,
7b<4q8[8:3]/8b,17,{16}3-7[8:1],,,1,{8}3,8,6,15,3-6b[8:1],24,3x,8x,{16}8x,,,2xh[16:3],,,1,,3,4,,7xh[16:3],,,8,,6,5,,4x/5x,{8},3,12,12,3b/7b,2b/6b,{4}3b/7b,2>5[8:1]/1<6[8:1],12,{16}7v4[8:1],,,8,{8}7,3,3,16,3-6b[8:1]/4,16,3x,8x,{16}8x,,,7xh[16:3],,,8,,6,5,,2xh[16:3],,,1,,3,4,,1x/8x,,6,5,,45,,36,,28,,17,1/7pp5b[16:5],,28,
{2},{16}2,4,2,,1,8,1,,7,5,7,,3,4,2,,8,1,{8}8h[4:1],B6/E6,D5/E5,,12,34,5-1[8:1]/6,,8,,7,,56,34,{16}2,1,,78,,6,5,,{4}3h[4:1]/4-7b[8:1],4bx,2v5[8:1]/1-6[8:1],1x/2x,78,{8}6,5,3pp1[4:1]/4,,3,8x,{16}8x,,,7xh[16:3],,,5,,8,1,,2xh[16:3],,,4,,1,8,,3b/6b,,,,,{32},,E1,E8,E7,E6,E5,E4,E3,E2,E1,,{16},,,,,2b/7b,
,,,,45,,3,4,2,,2,,18,,7,8,6,,6,,45,,3,4,2,,2,,18,,,,37,,6,5,6,,3,4,3,,6,5,6,,57,,{8}6h[4:1],8,4h[4:1],8,5h[4:1],1,3h[4:1],1,4,{16}2,2,1,,3/8h[8:3],,6-2[8:1],,,,6x,,,,6,,7,7,8,,1h[8:3]/6,,3-7[8:1],,,,3x,,,,68,6h[16:3]/8h[16:3],,,,,13,1h[16:3]/3h[16:3],,,,,45,,,,12,12,,78,,45,,27,27,,B4/B5/Cf,,{4},
7b-3-5-8[8:3]/8b,27,{16}2v5[8:1],,,1,{8}2,8,7,57,2-5b[8:1]*-6b[8:1],24,,,{16}4x/7x,,,6xh[16:3],,,8,,17,17,,3xh[16:3],,,1,,28,28,,4x/5x,{8},26,3-6[8:1]/7-2[8:1],2-7b[8:1]/6-3b[8:1],{4}3x/7x,,2-6-4-1[8:3]/1,72,{16}7v4[8:1],,,8,{8}7,3,3,17,3-8b[8:1]*-7b[8:1]/4,25,,,{16}1x/6x,,,5xh[16:3],,,8,,17,17,,4xh[16:3],,,1,,28,28,,5x/4x,,6,6,,57,,8,,17,,28,8-4b[8:1]/2-6b[8:1],,17,,2bx/8bx,
{8},,45,3h[8:1],2h[8:1],1h[8:1],8h[8:1],7h[8:1],6h[8:1],5h[8:1],4h[8:1],{16}3,3,{8},D6/E6,D1/E1,,7-3[8:1],7,2-8[8:1],2,5-1[8:1],5,4>2[8:1],4,7<4[8:1],7,8,8,17,17,{16}2,1,2,1,{4}3b/8b,8v3[8:1]/7-4[8:1],7x/8x,12,{8}78,56,3pp1[4:1]/4,,3,8x,{16}8x,,,7xh[16:3],,,5,,8,8,,2xh[16:3],,,4,,1/7,1b/7b-2-6-3-6[16:11],,,{1},
{32}1bxw5[8:1],2x,3x,4x,5x,6x,7x,8x,{4}1bx,7-4[8:1]/3-8[8:1],37,{8}14,14,3-6b[8:1]/2-7b[8:1],14,,,{16}8x,,,5x-1[8:1],,,1,,3,3,,4x-8[8:1],,,8,,6,6,,1x/7x,{8},34,28,56,8<5[8:1]/1>4[8:1],27,8x-4[8:1]/1x-5[8:1],,1bx/8bx,,3x>7b[8:1],4,3b/5b,,6x<2b[8:1],5,4b/6b,,5x>2b[8:1]/1x<6b[8:1],48,1b/5b,,{16}2x/6x,,,3xh[16:3],,,4,,56,56,,78,,,12,,34,34,,2bh[16:3]/6bh[16:3],,,,,,{32}E1,E8,E7,E6,E5,E4,E3,E2,{8}E1,,,{16}A2/A7/B2/B3/B4/B5/B6/B7/Cf/E2/E3/E5/E7/E8,{2},{1},,,,,,
E

Re:MASTER


名前:
コメント:

タグ:

+ タグ編集
  • タグ:
最終更新:2026年06月28日 23:54