アットウィキロゴ

ヒバリ

アーティスト HIMEHINA

BPM BASIC ADVANCED EXPERT MASTER Re:MASTER
140 2 5 10+ 13 -

EXPERT MASTER Re:MASTER
譜面制作者 Jack ロシェ@ペンギン -

BASIC


ADVANCED


EXPERT

(140){1},,,,,,,,
Cf/E3/B2/B3/E7/B6/B7,
{16}2h[16:3],,,4h[16:3],,,3h[16:3],,,5h[16:3],,,4,,,,7h[16:3],,,5h[16:3],,,6h[16:3],,,4h[16:3],,,5,,,,2h[16:3],,,3h[16:3],,,4h[16:3],,,5h[16:3],,,4,,,,7h[16:3],,,6h[16:3],,,5h[16:3],,,4h[16:3],,,5,,,,12,,,38,,,7h[16:3],,,6h[16:3],,,5,,,,78,,,16,,,2h[16:3],,,3h[16:3],,,4,,,,7h[16:3],,,5h[16:3],,,4h[16:3],,,2h[16:3],,,7,,,,13,,,68,,,7/2-6[8:1],,{4},8bx,
57,45,{8}3,3,24,,{16}6h[16:3],,,5,,,7h[16:3],,,5,,,{4}1,24,45,{8}6,6,57,,{16}3h[16:3],,,4,{8},8h[4:1],,1x,1x,1x,28,,37,,6,6,57,,{16}3h[16:3],,,4,,,2h[16:3],,,4,,,{8}8,,17,,26,,3,3,24,,{16}8h[16:3],,,1,,,2xh[8:3]/7xh[8:3],,{4},,
6h[2:1],5,4,35,2h[2:1],3,4,35,6h[2:3],{8}5,5,,7,7,,5,5,,7,{4}7<4[8:1],,3h[2:1],4,5,46,7h[2:1],6,5,46,3h[8:9],{8}4,4,,2,2,,4,4,3,2,1,8,{4}1x/7x,
6,56,{8}3,3,4,,2,,12,,7,7,{4}8,56,34,57,24,45,8h[4:1],{8}1,1,{4}8b,12,34,56,78,56,34,12,3-8b[8:1]/7-4b[8:1],{1},{16}45,,,45,,,45,,{2}2bx>4[8:1]/7bx<5[8:1],
{8}1b/8b,,12,3/8h[4:1],,5h[4:1],,6,47,,34,2/5-8[8:1],,4,,,1,1,28,,7,7,5,{4}6-4[8:1],2-6[8:1],8<2[2:1],1xh[8:5],,,{8},2,1,38,,56,,34,,7,8,16,,7-4[8:1],7,8x,,2-5[8:1],2,1x,,{16}78,,,45,,,12,,{4}3/8-4[8:1],1b,12,{8}78,1h[4:1]/6,,4h[4:1],,3,25,,56,7/4-1[8:1],,5,,,8-5[8:1],8,1x,,3,3,4,{4}2x-5[8:1],7x-3[8:1],1x>6[4:1],8b,{8},7,7,5,5,4,4,2,2,{4}18,67,45,23,{8}1,2,3,8,7,6,45,,3,3,6,6,4x-2[8:1]/5x-7[8:1],,,,1x/8x,18,2x/7x,27,3x/6x,36,4x/5x,45,2bx/7bx,{4}7b/2b-5[8:1],6b-1[8:1],4b>5b[8:15],{8}Chf[8:15],
{1},,{4},1x/8x,{8}2,2,3x/4x,,{16}5/6h[16:3],,,7h[16:3],,,{8}8,,1x/8x,1x/8x,1x/8x,27,,34,,7,7,56,,{16}2h[16:3],,,4,,,6h[16:3],,,5,,,{8}8,1,27,,56,,2,2,34,,{16}78,,,12,,,{8}1h[16:3]/8h[16:3],,,E1,C,{1}E5,,,,,
E

MASTER

(140){1},
1s5[4:5],{2},7h[2:1],6h[8:5],{8},5,6,7<4[8:5],{4},,,2,2h[8:7],,,{8}3,3h[4:3],,,,4,4,4h[8:3],,,{1}2>6[2:1],B2/B3/B6/B7/Cf,
{16}1bx/6bx,,2,4,3,,18,,7-4[8:1],5,6,,1x/7x,,2,,38,,7,5,6,,18,,2-5[8:1],4,3,,2x/8x,,7,,16,,2,4,3,,18,,7-4[8:1],5,6,,1x/7x,,2,,38,,7,5,6,,{2}2x<3[4:1]/8xh[2:1],{16},,8x,1,1,7,2,2,6,3,3,5,4,4,6bxh[4:1],,,,1x,8,8,2,7,7,3,6,6,4,5,5,3bxh[4:1],,,,7x,5,6,2,4,3,7,5,6,2,4,3,8bxh[4:1],,,,2x,1,3,7,8,6,4h[8:3],,,,{48}A2,D2,A1,D1,A8,D8,{4}A7,
{24}2x,3,4,6,7,8,2,3,4,6,7,8,{8}2h[8:1],3h[8:1],4h[8:1],5,{16}56,,,58,,,34,,,14,,,35,,45,,{24}7x,6,5,3,2,1,7,6,5,3,2,1,{8}7h[8:1],6h[8:1],5h[8:1],4,{16}34,,,14,,,{8}36,,4x/5x,4x/5x,4x/5x,{24}7x,6,5,3,2,1,7,6,5,3,2,1,{8}7h[8:1],6h[8:1],5h[8:1],4,{16}34,,,14,,,56,,,58,,,46,,45,,{24}2x,3,4,6,7,8,2,3,4,6,7,8,{8}2h[8:1],3h[8:1],4h[8:1],5,{16}56,,,58,,,1b/8b,,,B2,,,{8}E1,B7,
5,5,6,6,5v8[8:1]/7h[4:1],,,,7,7,6,6,5v3[8:1]/7h[4:1],,,,{16}3,4,3,4,3,,6,5,6,5,6,,3,4,3,4,2,,6,5,6<2[4:1],5,{2}7h[8:3],{8},1,1,2,2,1v4[8:1]/3h[4:1],,,,2,2,3,3,2h[4:1]/4v6[8:1],,,,{16}6,5,6,5,6,,3,4,3,4,3,,6,5,6,5,{8}7-5-8-4[8:3],4,3,2,1<6[8:1]*>4[8:1],,1x,,
4x/5xh[4:1],,2h[8:1],E5,1h[8:1],E4,8h[8:1],E3,7h[8:1],E2,6h[8:1],E1,5h[8:1],E8,4,3h[8:7]/8,,,{32}E2,B2,E3,,,,,,E8,B7,E7,,{8},E3/B2/B3,C,{4}E7/B6/B7,1-7-2-6[8:3]/8h[4:1],,,4xh[4:1]/5x,{8}7h[8:1],E5,8h[8:1],E6,1h[8:1],E7,2h[8:1],E8,3h[8:1],E1,4h[8:1],E2,5,16,{2}1xh[4:1]/6xh[4:1],3xh[4:1]/8xh[4:1],{16}57,,,24,,,45,,{4}1b<5b[8:1]/7bh[4:1],1x,
{8}1x/8x-4[8:1],,78,6-2[8:1],,67,8,1,2x/4x-1[8:1],,47,8-6[8:1]*-4[8:1],,8,,,2/5-1[8:1],47,1,,28,{4}2/8<5[8:1],3/8>3[8:1],5/8-4[8:1],4/8w4[4:1],,{8},7,8,1,4/2h[4:1],,1,28,37,4/6h[8:3],,7,7,,68,15,24,{16}3,4,3,4,3,,8,1,8,1,8,,78,,56,,24,,3,4,,4,2,,{4}1-4b[8:1]/8-5b[8:1],{48}1x/8x,E2/E8,B7/B2,B6/B3,E6/E4,,{8},1x-5[8:1]/8x,,12,3p1[4:1],,34,5,6,7/1-5[8:1],2,1/7-3-6[4:1],6,27,1h[8:3],,,4-8[8:1],4,4/2-5[8:1],,1,8,7,{4}6/8-2b[8:1]*-3b[8:1],8bx-5b[8:1]*-6b[8:1],8bxw4b[8:1],8bx,{8},2,3,4,5>2[8:1],,5<8[8:1],,5,{4},2-8[8:1]*-7[8:1],2-6[8:1]*-5[8:1],2,{8}7/4h[8:3],,3>6[4:1],3,,5,4,3,2,2h[4:1],,8h[4:1],,5,1b/7b,,2x,2,13,13,48,48,57,57,18,{4}1-6b[8:1]/8-6b[8:1],1x-3b[8:1]/8x-3b[8:1],1x/8x<1pp4pp7[8:13],{8}1hbx[8:15]/8bx,
{1},{4},,,{8}8x,18,{24}7x,6,5,3,2,1,7,6,5,3,2,1,{8}7h[8:1],6h[8:1],5h[8:1],4,{16}43,,,41,,,{8}36,,4x/5x,4x/5x,4x/5x,{24}7x,6,5,3,2,1,7,6,5,3,2,1,{8}7h[8:1],6h[8:1],5h[8:1],4,{16}43,,,41,,,56,,,58,,,{8}64,54,{24}2x,3,4,6,7,8,2,3,4,6,7,8,{8}2h[8:1],3h[8:1],4h[8:1],5,{16}56,,,5/8-4[8:1],,,1x/8x,,,E3,,,{8}B1,B8,{1}E7,,,,,
E

Re:MASTER


名前:
コメント:

タグ:

+ タグ編集
  • タグ:
最終更新:2026年03月29日 15:10