アットウィキロゴ

不機嫌なスリーカード

アーティスト HIMEHINA

BPM BASIC ADVANCED EXPERT MASTER Re:MASTER
195 3 7 10 13 -

EXPERT MASTER Re:MASTER
譜面制作者 翠楼屋 アマリリス -

BASIC


ADVANCED


EXPERT

(195){1},
{4},4,,4,,4,,4h[1:2],,5,,5,,5,,6h[1:2],,5,,5,,4,,3h[1:1],,4,,5,4x/5x,4x/5x,4x/5x,,
6,6,78,78,1,2,38,38,3,3,12,12,8,7,16,16,2,2,34,45,6,6,57,46,3h[4:1],4,6h[4:1],5,45,45,{2}3x/6x,
4h[4:1]/5h[4:1],45,5h[4:1]/6h[4:1],56,4h[4:1]/7h[4:1],47,3h[4:1]/8h[4:1],38,4h[4:1]/8h[4:1],5h[4:1]/7h[4:1],4h[4:1]/6h[4:1],3h[4:1]/5h[4:1],2h[4:1]/4h[4:1],2h[4:1]/3h[4:1],{4}14,14,2x/5x,,6h[4:7],5,5,4,5,5,7,1,2h[4:5],5,5,3,1bx,1,8,7,6h[4:3],4,4,5,2h[4:3],4,4,1,8h[4:3],2,2,3,8x,6x,4x,2<7[2:1],
,,,6>3[2:1],,,,2<7[2:1],,,,6>3[2:1],,,,2,{2}2h[1:1],B3/B4,6h[1:1],B5/B6,4h[2:1],5h[2:1],Ch[2:1],,{4}18,18,2,3,46,6,35,3,12,12,18,78,1xh[4:1]/6xh[4:1],,25,34,6h[4:1],5,3h[4:1],4,7h[4:1],5,2h[4:1],4,7h[4:1],8,2h[4:1],1<5[2:1],{1},Cfh[1:1],{4}B2/B7,,,1x/8x,
2bx/7bx,34,18,56,34,12,78,78,1/6h[4:1],5,3h[4:1]/8,4,25,36,47,3x/8x,2h[4:1],4h[4:1],5h[4:1],7h[4:1],3h[4:1],1h[4:1],8h[4:1],7,16,27,38,1bx/2bx,{12}3bx/4bx,,3bx/4bx,,,2bxh[3:1]/6bxh[3:1],{4},,1bx/8bx,56,18,34,56,78,12,12,8h[4:1],6h[4:1],5,5,4h[4:1],2h[4:1],1,1,2/8-5[4:1],,4-1[4:1],,7,7h[4:1],8,16,2/5<8[4:1],,1>4[4:1],,5,6h[4:1],5,4/7p2[2:1],,,,1h[4:1],{6}8x,8x,8x,1x/7x,1x/7x,1x/7x,{4}2xh[4:1]/6xh[4:1],,35,35,5b/6b,1b/2b,3b/4b,7b/8b,
1bh[4:7]/6b,,4,4,5,5,4,4,25,25,34,6/5>8[2:1],,,,7x,78,78,6h[4:1],5,34,34,2h[4:1],1,38,47,56,56,4h[4:1]/5h[4:1],,4x/5x,4bx/5bx,
{12}6h[6:1],,5,7,,,3h[6:1],,4,2,,,6h[6:1],,5,7,,,48,,,7,,,7h[6:1],,8,6,,,2h[6:1],,1,3,,,7h[6:1],,8,6,,,1x/5x,,,2x/4x,,,6h[6:1],,5,7,,,3h[6:1],,4,2,,,7h[6:1],,8,6,,,2h[6:1],,1,3,,,48,,,7,,,2x/6x,,2x/6x,,,1bxh[12:7]/5bxh[12:7],{4},,,,1bx/8bx,57,45,24,1bx/8bx,57,24,18,5bx/6bx,23,78,16,{2}3bxh[12:35]/4bx,C1h[12:29],{1},,,
E

MASTER

(195){1},
{4}3h[4:27],{2}4,4,5,5,6,6,5,5,4,4,5,5,6,{4}6,7/2b,7/2b,{12}1,8,1,8,1,8,
2,,2,3,,3,4,,,56,,,47,,47,,,8<4[8:1],,,,,,,1,,1,8,,8,7,,7,6,,6,4,,4-1[8:1],5,,5x,,,,,,,7,,7,6,,6,5,,,43,,,52,,52,,,1h[4:1],,,4,4,,5h[3:1],,,,6,,,7/8,,8pp4b[12:7]/7qq3[12:7],,,,{1},
{4}4h[4:7]/3,3,2,2,3,3,1,1,34,34,42,42,41,4/1>4[4:1],,,4h[4:1]/3,2,4h[4:1]/3,2,3h[4:1]/4,2,3h[4:1]/4,2,2-4[8:1]/4,4,1-4[8:1],4,2bx-4-7[2:1],4bx,5bx,6bx,56,{12}7,,5,6,,,57,,,56,,,7,,5<8[8:1],{4}6,,78,{12}6,,8,7,,,86,,,87,,,6,,8<5[8:1],7,,,,,,56,,,7,,5,6,,5,7,,5,6,,,56,,7,8,,6,8,,7,8,,,78,,,56,,56,,,,5h[6:1],,6h[6:1],,7h[6:1],,{4}8,6-2b[8:1]/5-1b[8:1],
{1}5bx/6bx,{32}3x,4x,5x,,{8},{4},,,{32}7x,6x,5hx[8:3],,{8},,,{32}2x,3x,4hx[8:3],,{8},,,{32}6x,5x,4hx[8:3],,{8},,,{32}2x,3x,4hx[16:7],,{8},,,{4}8>3[4:1],7,6,5,4<7[4:1],3,2,1,1h[4:1],A5,A6,A7,{6}2x,4x,3x,7x,5x,6x,{4}2b/7b,8,7,46,3h[4:1],1,8/2h[4:1],4,3<6[4:1],6,7>2[4:1],2,3,6h[2:1]/4>1[4:1],,,57,46,{12}3,,3,1,,,24,,,35,,,6,,6,8,,,57,,,34,,,2,,2,8,,8,{4}3qq6[2:1],7bx,6bx,5bx,8x/1x,,,,3b/4b,{12}6b/8b,,1b/5b,{4},82,
{12}3-8[8:1],,7-4b[8:1],3,,7,2-5[8:1],,6-1b[8:1],2,,6,4-1[8:1],,8-5b[8:1],4,,8,,,2h[4:1],,,1,3,,,45,,,56,,8-4[8:1]/7-3b[8:1],,,{24}E8,C,{4}E4f,,18,34,{12}57,,1,8<5[8:1],,,3x,,3x,,,24,,,3,{4}5<8[8:1],4,4<3[2:1],8h[4:1],,,1,{12}82,,82,,,3h[3:1]/7bh[3:1],,,,,,,6-1b[8:1],,2-5[8:1],6,,2,7-4b[8:1],,3-8[8:1],7,,3,5-8b[8:1],,1-4[8:1],5,,1,,,7h[4:1],,,8,6,,,45,,,34,,2>5b[6:1]/1<6[6:1],,,1x/2x,{4},,78,12,{12}3,,6,5,,7,8,,6,{4}5>2[8:1],5x,1,8,71,{12}6,,3,4,,2,1,,3,{4}4<8[8:1],4x,2,1,78,56,13,34,68,{6}7hx[6:5]/4x,5x,6x,8x,1x,2x,{12}4x/5x-8[6:1],,,,,2,2,,71,,,56,56,,,73,,,81,,8x<1b[6:5]/1x>8[6:5],,,,
{1},E3/E7/B2/B3/B6/B7/Cf,{12}1,,1,8,,8,7,,7,6,,6,4,,4-1[8:1],5,,5x,,,,,,,7,,7,6,,6,5,,,43,,,52,,52,,,1h[4:1],,,4,4,,5h[3:1],,,,6,,,78,,8pp4b[12:7]/7qq3[12:7],,,,{1},
{4}8x/1x-4[8:1],1x/4x-1[8:1],4x/5x,{12}6,,1,8,,,34,,34,,,6,5,,,4x/5x-8[8:1],,,5x/8x-5[8:1],,,8x/1x,,,3,,5,4,,,56,,56,,,3,4,,,3x/4x-7[8:1],,,4x/7x-4[8:1],,,7x/8x,,,2,,5,4,,,24,,2h[3:1]/4,,,,1,,,34,,,56,,,27,,7<5s1b[12:7]/2>4z8[12:7],,,2x/7x,{1},{12}46,,5,3,,18,,,2,4,,3,5,,4,6,,78,,,6,4,,5,3,,4<7[8:1],2,,4x,,,1,8,,4x/6x,6bx>8b[4:11]/4bx>8[4:11],{1},,,,
E

Re:MASTER


名前:
コメント:

タグ:

+ タグ編集
  • タグ:
最終更新:2026年05月13日 22:30