アットウィキロゴ

INTERNET YAMERO

アーティスト Aiobahn feat. KOTOKO

BPM BASIC ADVANCED EXPERT MASTER Re:MASTER
185 4 7+ 10+ 11+ 13+

EXPERT MASTER Re:MASTER
譜面制作者 鳩ホルダー 緑風 犬三郎 サファ太

BASIC


ADVANCED


EXPERT


MASTER

(185)
{1},
{8}1/7,,2/8,,3,3,4,,
{8}5/6,4/7,,3/4,2/5,,3-6[8:1]/7-2[8:1],,
{1},
{1},
{1}5/7,
{1},
{1}2/4,
{8},,,B4/B5/E5,,,,,
{1}1x/8x,
{16}3x/6x,,,,,,,,4,,,4,5,,3/6,,
{4}3/6,E6,E7,E8,
{4}E1,E2,E3,E4,
{4}4x/5x,E6,E7,E8,
{4}E1,E2,E3,E4,
{4}4x/5x,E6,E7,E8,
{4}1x/8x,E2,E3,E4,
{2}4h[4:1]/7h[4:1],2h[4:1]/5h[4:1],
{4}B7/E7/A7f,B4/E4/A4f,B2/A2f/E3,8b,
{4}5/7,5/7,1/2,1/2,
{4}3/5,3/5,5/6,5/6,
{4}2/4,2/4,7/8,7/8,
{8}4/6,,4/6,,3/4,,4/5,6,
{8}5/7,,5/7,8,1/2,1/2,1/2,,
{8}3/5,,3/5,,5/6,,4/5,3,
{4}2/4,2/4,7/8,7/8pp4[2:1],
{4}6,,,3x/5x,
{4}4/6,6/4-1[4:1],5,5,
{4}1/6,6/1-4[4:1],5,5,
{4}4/6,6/4>1[4:1],5,5,
{4}1/6,6/1>4[4:1],5,5,
{4}6/4qq1[4:3],6,5,5,
{4}6,6,3/5,5/3>8[4:1],
{4}6,6,5,5,
{8}6,,6,,4,4,4/5,,
{4}3/5,3/5-1[4:1],4,4,
{4}1/3,3/1-6[4:1],4,4,
{4}3/5,3/5-1[8:1],4,4,
{4}1/3,3/1-6[4:1],4,4,
{4}3/5-8[4:1]-2[4:1]-6[4:1],3,4,4,
{4}3,3,4/7,4/7-2[4:1],
{4}3,3,4,4,
{16}3,,,,3,,,,3/6,,4,5,4,,3/6,,
{1}6/3>5[4:5],
{1},
{1}3>2[4:1]-8[4:1]<7[4:1]-5[2:1],
{1},
{4}3h[8:1]/5h[8:1],3h[8:1]/5h[8:1],3h[8:1]/5h[8:1],3h[8:1]/5h[8:1],
{4}4h[8:1]/6h[8:1],4h[8:1]/6h[8:1],4h[8:1]/6h[8:1],4h[8:1]/6h[8:1],
{4}2h[8:1]/5h[8:1],2h[8:1]/5h[8:1],3h[8:1]/4h[8:1],5h[8:1]/6h[8:1],
{4}4h[8:1]/7h[8:1],4h[8:1]/7h[8:1],5h[8:1]/6h[8:1],5/6,
{16}6,5,6,5,6,,,,3,4,3,4,3,,,,
{16}6,5,6,5,7,,,,2v5[8:1]/8v5[8:1],,,,,,,,
{16}3,4,3,4,3,,,,6,5,6,5,6,,,,
{16}3,4,3,4,2,,,,5/6,,,,7/8,,,,
{2}1-5[8:1]/2-4[8:1],B6/E6/A6/E7/A7/D7,
{8}7-5[8:1]/8-4[8:1],,,,3,3,2/4,,
{4}3h[8:1]/4h[8:1],1h[8:1]/2h[8:1],7h[8:1]/8h[8:1],5h[8:1]/6h[8:1],
{4}5bh[8:1]/6bh[8:1],7bh[8:1]/8bh[8:1],1bh[8:1]/2bh[8:1],4b/3b-1[4:1]-4[4:1]-8[4:1],
{1},
{1}6xp5[4:3]>7[4:3],
{1},
{8},,,5/6,5/6,,3/5,,
{8}2/4,2/4,,7/8,,5V37[2:1]/6-2[4:1]-8[4:1],,,
{8},,,,,7x/8x,7x/8x,,
{8}5/7,5/7,,1/2,,3-7[4:1]-1[4:1]/4V62[2:1],,,
{8},,,,,1x/2x,1x/2x,,
{8}2/4,2/4,,7/8,,5-1[4:1]-3[4:1]/6V84[2:1],,,
{8},,,,,3x/4x,3x/4x,,
{8}5/7,5/7,,7/8,,1-5[4:1]-7[4:1]/2V48[2:1],,,
{8},,,,,7x/8x,7x/8x,,
{8}6,6h[4:1],,5,,4/7>4[8:5],,5h[8:3],
{4},,5,4/6,
{8}3,3h[4:1],,4,,5/2<5[8:5],,4h[8:3],
{4},,4,3/5,
{8}2,2h[4:1],,1,,8/3<8[8:5],,1h[8:3],
{4},,1,2/8,
{2}4b-1[8:1],5b-8[8:1],
{8}1bx,1bx,2bx/8bx,2bx/8bx,3bx/7bx,3bx/7bx,4bx/6bx,4bx/6bx,
{1}5bxh[2:7],
{1},
{1}3bh[2:7],
{1},
{1}7bh[4:11],
{1},
{1}1bh[4:3],
{16}1b/7b,,,,,,,,8,,,8,1,,2/7,,
{4}2h[4:1]/7,4h[4:1],6h[4:1],8h[4:1],
{4}2h[4:1],4h[4:1],6h[4:1],8h[4:1],
{4}1bh[4:1],3h[4:1],5h[4:1],7h[4:1],
{4}1h[4:1],3h[4:1],5h[4:1],7h[4:1],
{4}8bh[4:1],6h[4:1],4h[4:1],2h[4:1],
{4}1bh[4:1],3h[4:1],5h[4:1],7h[4:1],
{4}1b,4/5,7<4[8:1]/8>3[8:1],,
{4}B6/A6f/E7,A4/E5/A5/D5f,B3/E3/A3f,8b,
{8}1-5[8:1]/2-5[8:1],,1x/2x,,6,6>3[8:1],,2,
{8},1,1-5[8:1],,6,,7,,
{8}7-4[8:1]/8-4[8:1],,7x/8x,,3,3<6[8:1],,7,
{8},8,8-4[8:1],,3,,2,,
{8}1-5[8:1]/2-5[8:1],,1x/2x,,6,,7,7-3[8:1],
{8},2,2>5[8:1],,6,,7,,
{8}7-4[8:1]/8-4[8:1],,7x/8x,,3,,2,2-6[8:1],
{8},7,7-3[8:1],,2,,1b,,
{8}1-6[8:1]/2-5[8:1],,1x/2x,,7<4[8:1],,2,2,
{8},1,1pp2[4:1],,6,,7,,
{8}7-4[8:1]/8-3[8:1],,7x/8x,,2>5[8:1],,7,7,
{8},8,8-3[8:1]*-5[8:1],,,,2,,
{8}1-6[8:1]/2-5[8:1],,1x/2x,,7,,3,3<6[8:1],
{8},8,8,,4/6,,7,,
{8}7-4[8:1]/8-4[8:1],,7x/8x,,3,,2,2-6[8:1],
{8},7,7-3[8:1],,2,,1b,,
{8}3-1[8:1]/4-8[8:1],,,,7x/8x,7x/8x,1/6,,
{8}3/4,,5/6-3[8:1],,2bh[4:1],,1,1,
{4}2h[8:1]/4h[8:1],7h[8:1]/8h[8:1],5-1[8:1]/6-8[8:1],,
{8}1x/8x,1x/8x,7/2-4[8:1]v5[8:1]-7[4:1],,,,,,
{8}8xh[4:1],,1,,3x/4x,3x/4x,2/5,,
{8}4/7,,5/6-3[8:1],,2bh[4:1],,4,4,
{4}5h[8:1]/7h[8:1],1h[8:1]/2h[8:1],3-1[8:1]/4-8[8:1],,
{4}1x/8x,4>1[4:1]/5<8[4:1],,,
{8}1-5[8:1],1,8-4[8:1],8,2-6[8:1],2,7-3[8:1],7,
{8}1>4[8:1],1,8<5[8:1],8,2-6[8:1],2,7,7,
{8}5,5,6,6,3,3,7,7,
{16}1,8,1,8,1>8[2:1]V24[4:1]-6[4:1],8,1,8,,,,,,,,,
{2},8h[1:8],
{1},
{1},
{1},
{1},
{1},
{1},
{1},
{1},
{1},
{1},
E

Re:MASTER

(185)
{1},
{4}7hbx[4:1],5hbx[4:1],{8}3bx,3bx,1bx,1bx,2bx/8bx,2bx/8bx,,
4bx/6bx,3bx/5bx,,1x/8x-4[8:1],2x/7x,{1}1hbx[1:2]/8bx,,
3hbx[1:2],,5hbx[1:2],{8},,,B3/B4/E5/B5/B6,{2},7hbx[2:3],,1hx[2:1],
{16},,,1,{8}8,27,{4}3hx[4:7]/6,6,5,5,4,4,5,5,
4/6hx[4:5],4,5,5,4h[4:1],,3h[4:1]/5h[4:1],,4/5x-8[2:1],4,4,4,4x-1[2:1]/5,5,5,5,
1hx[4:1]/5h[4:1],,1hx[4:1]/5h[4:1],,A6/E7/A7f/B7/B8,A5/A4/E5f/B5/B4/B3,D2/A2f/D3/E3/B2/E2,
{16}8bx,1bx,8bx,1bx,{8}8bx,7,2/4x,3,5x/7,6,2/4x,3,5x/8,7,1/4x,2,3hx[4:1]/5,,
8,8,5/7x,6,2x/4,3,5/8x,7,1x/4,2,5h[8:1]/7h[8:1],,3h[8:1]/4h[8:1],,26,,
{16}1bx,8bx,1bx,8bx,{8}1bx,7,56,45,34,{16}2,1,{8}3,48,57,6,24,3,46,7,
28,28,3/7h[8:1],5,2h[8:1]/6,4,35,{16}6,4,6,4,6,4,{8}5b,4b/6b,3b/7b,2b/8b,1b-6b[8:1]*-4b[8:1],,1bx,,
4x/6x,,3h[4:1]/7,,4,,25,,34,,7h[4:1],,5,6,47,,35,,2/6h[4:1],,5,,47,,56,,
2h[4:1],,4,3,25,,3/6h[4:1],,5,,4h[4:1]/7,,5,,5/7h[4:1],,6,,8,1,27,,3h[4:1]/6,,4,,
2/5h[4:1],,4,,2h[4:1]/4,,3,,5,5,4,6,3x/7hx[8:3],,,5,5,6<2<6[1:1],,3,,3,,4,,3,,2h[2:1],,,,
4,4,3V17V13[1:1],,6,,6,,4,,5,,6h[4:7],,,B6/B7,,,,B3/B4,,,,B6/B7,,,
4,4,3h[4:1]/5,,1h[4:1],,8,,37,,46,4h[4:1]/6-8[8:1],,6,,
1x/8x,{16}1,8,{8}1,27,{1}3-5qq4[4:5]/6h[4:13],,4-7qq5[8:9],,
{4}5/6bx,5bx/6,6bx/7,7bx/6,7/8bx,7bx/8,1/8bx,1bx/8,
1h[8:1]/2hbx[8:1],1hbx[8:1]/2h[8:1],2hbx[8:1]/3h[8:1],2h[8:1]/3hbx[8:1],
3h[8:1]/4hbx[8:1],3hbx[8:1]/4h[8:1],4hbx[8:1]/5h[8:1],{8}5/6bx,5bx/6,5/6bx,
{16}3,4,3,4,2,,18,,7,8,7,8,{8}6,56,56,7V15[4:1]/4-2v5[4:1],,74,,,,
{16}6,5,6,5,7>2v4[8:3],4,7,4,{2}7,
{16}3,5,3,5,{8}4-7[8:1]*-1[8:1],,4,,2x/6x,,
34,45,{4}5qq5[4:1]*-7[4:1]/6,5x,,
{16}1,8,1,8,{4}27,D1/E1/D2/E2/D3/E3/D4/E4/D5/E5/D6/E6/D7/E7/D8/E8/B1/B2/B3/B4/B5/B6/B7/B8/Cf,,
{8}A3,A4,A5,A6,{16}4,5,4,5,{4}4-1[8:1],8-6[8:1]*-4-2[4:1],,
{8}8,8,17,
{8}2h[4:1]/6,,{16}5h[16:3],,,3h[16:3],,,6h[16:3],,,4h[16:3],,,7h[16:3],,,5h[16:3],,,6h[16:3],,,4h[16:3],,,5h[16:3],,,4,,,
{4}4>6[4:3]/6,,5,5,5h[4:1],{8}E7,E8,E1,E2,E3/Cf,,17,1/7-3[8:1],,
2-6[8:1]/7,,5pp4[2:1]/2<8-4[2:1],,,,,,,,35,35,,
26,2-6[8:1]/6,,2/7-3[8:1],,7>1-5[2:1]/4qq5[2:1],,,,,,,,46,46,,
3b/7b,3b/7b-3b[8:1],,2b-6b[8:1]/7b,,5bpp4b[2:1]/2b<8-4b[2:1],,,,,,,,26,26,,
78,7/8-3[8:1]*-2[8:1],,8-6[8:1]*-5[8:1],,8qq4[2:1]*pp4[2:1],,8,,,,,,
35,6-8[8:1],1-5[8:1],6b,1<6[8:1],,1x>4[8:1]/4x,,1/5x,,6-2[8:1]/5-1[8:1],,65,,
3x/8x,,46,3-1[8:1],8-4[8:1],3,8>3[8:1],,8x<5[8:1]/5x,,8/4x,,
4-8[8:1]/3-7[8:1],,43,,1x/6x,,1x/7x,2-4[8:1],5-1[8:1],2,5>2[8:1],,5x<8[8:1]/8x,,5/1x,,
2-6[8:1]/1-5[8:1],,21,,47,,56,45,34,3hb[4:1]/2hb[4:1],,,,7hb[4:1]/6hb[4:1],,,,
2bx/8bx,3bx/7bx,2bx/8bx,4bx/6bx,1b/7b,2b/6b,1b-5[8:1]/7b,3b/5b,{384}1b/8hb[1:2],Cf,{192},,,{24},{16},{8},{4},{2},{1},
{1}6hbx[1:2],,4hbx[1:3],,5hbx[1:1],{2},
{16}18,,,1,{8}8,27,{4}3>6<3[2:3]/6,5,5,5,4,4,4,5,
3x/6x<3>6[2:3],4,4,4,5,5,5,4,
4bx-1[4:1],6,5-8[4:1],3,4bx>1[4:1],8,8-4b[8:1],,
1hbx[4:1]/5h[4:1],,1hbx[4:1]/5h[4:1],,
D7/A7/D8f/A8/D1/E8,D4/A4/D5f/A5/D6/E5,A7/D8/E8/A8/D1f/A1/D2/A2/E2,
3x-1b[8:1]/6x,3/5-7b[8:1],5/8-4[8:1],1-3[8:1]/8,1/6-8b[8:1],4-2b[8:1]/6,
1-5[8:1]/4,1/8-6[8:1],3-1b[8:1]/8,3/5-7b[8:1],5/8-4[8:1],1-3[8:1]/8,
1/6-8b[8:1],4-2b[8:1]/6,1v6[8:1]*v4[8:1]/4,1,
{16}3b,7b,3b,7b,{4}3b-1b[8:1],3/8-4[8:1],8/7-5[8:1],3-1b[8:1]/7,
4-8b[8:1]/3,4/7-5[8:1],7/1-3[8:1],1/4-8b[8:1],4/5-7b[8:1],1-3[8:1]/5,
8-4[8:1]/1,84,3x/5x,{16}1b,8b,1b,8b,{8}2b/7b,4b/5b,2b-7[8:1]/6b-3[8:1],,
2>5[8:1]/6<1[8:1],,26,,4x-8b[8:1]/8x,,4/7<4[8:1],6,3-1[8:1]/7,2,3/8-6[8:1]*-4[8:1],,8,,
3-5[8:1]/5,2,3/7-3[8:1],8,1>4[8:1]/7,2,1x/6-8[8:1],7,5-1[8:1]/6,4,5/6>3[8:1],7,
1xw5[8:1]/6,,1b,,
78,16,5-1[8:1]/2-4[8:1],,25,,38,56,34,2-8[8:1]/5,,7,6>3[8:1]*-3[8:1],,6b,,
1/2x-5[8:1],3,2/8-4[8:1],7,3-8[8:1]/8,2,3/6-2b[8:1],7,26,4>6[4:1],,5,5w1b[8:1],,5b,,
3b/7b,,2xv5[8:1]/1x-6[8:1],2x/1x,,,5x-7[8:1]/4x-2[8:1],5x/4x,,,
8xz4[8:1]*-5[8:1]/1x,8x/1x,,,3b/6b,,
2-4[8:1]/1-5[8:1],38,2-6[8:1]/1-7[8:1],,12,,4x/5x,
{16}3,4,{4}2>7[4:1],7<2[4:1],2-4v5-7b[8:3],8b,8x,
{8}8x>3[8:1]/7x<4[8:1],8x/7x,,,5x-7[8:1]/4x-2[8:1],5x/4x,,,8xz4[8:1]*-5[8:1]/1x,8x/1x,,,
3b/6b,,8-4[8:1]/7-5[8:1],16,8-2[8:1]/7-3[8:1],,87,,81,27,
{4}5-7[8:1]/4-2[8:1],5b-1[8:1]/4b-8[8:1],5b<8[8:1]/4b>1[8:1],5b/4b,3b/6b,
1b/B4/E5/B5f/A5/E6/B6,8b/A4/E4/B3/E5/B5/B4f,7b/A3/E3/B2/E4/B4/B3f,6b/A2/B2f/E3/B3/E2/B1,5b/A1/E2/B2/E1/B8/B1f,4b/A8/E1/B1/E8/B7/B8f,3b/A7/E8/B8/E7/B6/B7f,2b-6b[8:1]/A6/E6/B5/E7/B7/B6f,
{8}1b-5[8:1],1,8b-4[8:1],8,7b-3[8:1],7,1b,1,{16}1b,8,1bx,8,1b,8,1bx,8,
{32}1b,2bx,3bx,4bx,5bx,6bx,7bx,8bx,1bx,2bx,3bx,4bx,5bx,6bx,7bx,8bx,1bx,2bx,3bx,4bx,5bx,6bx,7bx,8bx,1bx,2bx,3bx,4bx,5bx,6bx,7bx,8bx,1V72-6-3-5>4V63-7-2-8[4:31]/5hx[1:8],
E

名前:
コメント:

タグ:

+ タグ編集
  • タグ:
最終更新:2026年04月05日 22:23