| アーティスト |
Aiobahn feat. KOTOKO |
BASIC
ADVANCED
EXPERT
MASTER
(163){4}2bxh[4:1],4bxh[4:1],6bxh[4:1],8bxh[4:1],{16}1bx,,,,2bx/7bx,,2bx/7bx,,,,1bx,8bx,1bx<3[1:1],,,,{1}6h[1:2],{2},1bxh[1:1],{2},2h[2:1],{1}3-6b[2:1]*<6b[2:1],{16}5/6,,,,4/5,,,,3x,4x,3x,4x,3x,,,,3/4,,,,4/5,,,,6x,5x,6x,5x,6x<1[4:1],,,,{4}4,2>5[4:1],6,6-1[8:1],{16}6/7,,,,,,,,,,1bx,8bx,1bx,,,,
{4}8/1-6[8:1],1h[8:1],1/8-3[8:1],8h[8:1],8/1-6[8:1],1h[8:1],1/8-3[8:1],8h[8:1],8/1-6[8:1],1h[8:1],1/8-3[8:1],8h[8:1],{8}1<6[8:1]*>4[8:1],,1,,3x/7x,2bx/8bx,2bx/8bx,,{4}8/1-6[8:1],1h[8:1],8-4[8:1]/1,8h[8:1],8/1-5[8:1],1h[8:1],1/8-3[8:1],8h[8:1],8/1-6[8:1],1h[8:1],1/8-4[8:1],8h[8:1],8/1-5[8:1],1<6[8:1]*>4[8:1],1,4bx/6bx,
{16}3-7[8:1],4,3,4,,,,,5-1[8:1],4,5,4,,,,,2,8,2,8,3v1[8:1],7v5[16:1],3,7,,,,,,,,,6,7,8,1,2,3,4,5,6,,,,5/7,,,,3,2,1,8,7,6,5,4,3,,,,2/4,,,,{8}3h[4:1]/5h[4:1],,,,6h[4:1],5,5,,4h[4:1]/6h[4:1],,,,3h[4:1],4,4pp8[2:1],,{4}2h[4:3],,,7<4[4:1],{1}1s5b[2:1],
{16}6,5,6,5,7,5,7,5,8,,7,,4/6,,6,,3,4,3,4,2,4,2,4,1,,2,,3/5,,3,,6,5,6,5,7,5,7,5,8,,7,,3/6,,2,,{2}1-4[8:1]*>4[8:1],8-5[8:1]*q5[8:1],{16}2,4,2,4,3,4,3,4,2,,1,,2/8,,8,,7,5,7,5,6,5,6,5,7,,8,,1/7,,2/6,,3,5,3,5,4,6,4,6,3,7,3,7,2-6[8:1],,1,,{4}2b/8,8,7,7,
6/5>1[4:1],8,6,4<8[4:1],1,3,5>1[4:1],8,6,4,1,2,3/4<8[4:1],1,3,5>1[4:1],8,6,4<8[4:1],1,3,5,8,6,3/5<1[4:1],1,3,4>8[4:1],8,6,5<1[4:1],1,2,1/3,2/4,3/5,4/6h[4:1],7h[4:1],8h[4:1],1h[4:1],2h[4:1],3qq3pp3[8:9],,,{1},
{2}5-7[8:1]*qq5[8:1],1-3[8:1]*qq1[8:1],{8}4x,5,6,7,8-4[8:1],3-1[8:1],8,3,{2}5-7[8:1]*qq5[8:1],1-3[8:1]*qq1[8:1],{8}4x,5,4/6,3,2/4,1,2x/8x,,{16}7h[16:3],,,6h[16:3],,,5,,4/7-3[8:1],,,,1,,1,,2h[16:3],,,3h[16:3],,,4,,2-5[8:1]/5-1[8:1],,,,,,,,1x,,,2x/8x,,,4,,4,,3,,2/4<2[8:3],,3/5,,4/6,,,,,,,,,,8bx,1bx,8bx<4[8:1]*>4[8:1],,,,
{16}8x,,,,1x/7x,,,2,2/5,,3,,4/6,,7,,{8}3/6>3b[8:1],7,1h[4:1]/6,,8bx,,7/8,1/6,{16}2/5-1[8:1],,,,4/5,,,,2h[16:3],,,1,2,,3/8,,{8}4/7,5/6,7-3[8:1],,3/7,1b,1bp4[8:1]*q6[8:1],,{16}1x,,,,2x/8x,,,7,4/7,,6,,3/5,,2,,{8}4-2[8:1]/6-8[8:1],7,4/6,,1x,,1/2,3/8,{16}4/7,,5/6,,2/5,,3/4,,6h[16:3],,,5x,6x,,4/7,,{8}3-8[8:1]/8-5[8:1],,3/8,,1/7,2b/8b,2b/8b,,
{4}2/1-6[8:1],1h[8:1],7/8-3[8:1],8h[8:1],1/2-5[8:1],2h[8:1],8/7-4[8:1],7h[8:1],2/1-6[8:1],1h[8:1],7/8-3[8:1],8h[8:1],{8}4>1[8:1],,4<7[8:1],,4,1bx,2bx/8bx,,{4}2/1-6[8:1],1h[8:1],7/8-3[8:1],8h[8:1],1/2-5[8:1],2h[8:1],8/7-4[8:1],7h[8:1],2/1-6[8:1],1h[8:1],7/8-3[8:1],8h[8:1],{8}4>1[8:1]*<7[8:1],,4,,1x/7x,2b/8b,8b/2bpp5[4:7],,
{1}B3/B4/E4f,{4},,,6bx,{1}6bxpp1b[2:3],{4},,,2bx,{4}2bxh[8:1],2h[8:1],3h[8:1]/4h[8:1],3h[8:1]/4h[8:1],4h[8:1]/5h[8:1],4h[8:1]/5h[8:1],Cf/B3/A3/B4/B5/B6/A6,,7h[8:1]/8h[8:1],1h[8:1]/8h[8:1],1h[8:1]/2h[8:1],1/2<5[2:1]*qq5[2:1],{1},{16}6,5,6,5,7,4,7,4,6b,5b,7b,4b,8b,,,,3,4,3,4,2>5[8:1],1,2p5[8:1],1,2,,,,,,,,{8}7/8,7/8,1,2,3/5,4/6,7/5p2[16:7]*pp1[16:7],,{16},,,,,,,,,,8bx,1bx,8bx<4[8:1]*>4[8:1],,,,
8x,,,,1x/7x,,,2,2/5,,3,,4/7,,8,,{8}1p5[8:1]/7q3[8:1],2/6,1/7,,2bx/6bx,,1/2,3/8,{16}7/4-8[8:1],,,,4/5,,,,7h[16:3],,,8,7,,1/6,,{8}2/5-1[8:1],3/4,5/2q6[8:1],,2/6,8b,8bp3b[8:1]*q5b[8:1],,{16}8x,,,,1x/7x,,,2,2/4,,3,,4/5,,6pp4[8:3],,{8}3qq5[4:1],6,3,,E5f,,7/8,1/6,{16}2-5[8:1]/5-8[8:1],,,,2/5,,,,8xh[16:3],,,1,8v6b-4>1[4:1]b*v6b-4-1[4:1]b,,2/7,,{8},,,,3/7,2b/8b,2b/8b,,
{4}2/1-6[8:1],1h[8:1],7/8-3[8:1],8h[8:1],2/1-5[8:1],1h[8:1],8/7-3[8:1],7h[8:1],{24}1bx,2x,3x,8bx,7x,6x,2bx,3x,4x,7bx,6x,5x,1bx,2x,3x,8bx,7x,6x,2bx,3x,4x,7bx,6x,5x,1bx,2bx,3bx,8bx,7bx,6bx,2bx,3bx,4bx,7bx,6bx,5bx,1bx,2bx,3bx,8bx,7bx,6bx,Cf/5bx,,,,,,{4}7x/8x-3[8:1],8h[8:1],2/1-6[8:1],1h[8:1],8/7-3b[8:1],7h[8:1],1/2-6b[8:1],2h[8:1],8/7-4b[8:1],7h[8:1],2/1-5b[8:1],1h[8:1],{8}7/8>3[8:1],,8<5[8:1],,4/8,3,2x-5b[8:1]/4x-8b[8:1],,{383}2b/4b>5p4[8:26],Cf,{1},{1},,,(153){2}2h[2:1],3h[384:191],(130)4h[384:191],(120)5h[2:1],(110){4}6h[384:191],,(95)7,7,(90){4}8,8-4b[1:1],8h[1:1],,{1},{1},{1},E
Re:MASTER
- ほぼ、書いてもらったような??. rokobuたちありがとう -- やきましゅ (2026-06-30 21:10:08)
最終更新:2026年07月01日 18:59