BASIC
ADVANCED
EXPERT
(185){1},
1>4[4:1]/8<5[4:1],{4}2bxh[2:1]/7bxh[2:1],,,35,3h[2:1]/5h[2:1],,,46,4h[2:1]/6h[2:1],,,35,24,13,8,8,2bxh[4:3]/7bxh[4:3],,,,4bxh[4:3]/6bxh[4:3],,,,3bxh[4:1]/5bxh[4:1],,4bxh[4:1]/6bxh[4:1],,{8},6,5,4,3b,,{4},5h[8:1]/6h[8:1],5h[8:1]/6h[8:1],7b/8b,7b/8b,3h[8:1]/4h[8:1],1b/2b,1b/2b,3,4h[8:1]/6h[8:1],4h[8:1]/6h[8:1],1b/7b,1b/7b,3h[8:1]/4h[8:1],1b/2b,1b/2b,3,3h[8:1]/4h[8:1],3h[8:1]/4h[8:1],1b/2b,1b/2b,5h[8:1]/6h[8:1],7b/8b,7b/8b,6,{8}2h[4:1]/5h[4:1],,,4h[4:1]/7h[4:1],,,8b,,4h[4:1]/7h[4:1],,,2h[4:1]/5h[4:1],,,1b,,
34,,2h[4:1],,5,,3h[8:1],4,,,2h[4:1],,4,2h[4:1],,4,,,2h[4:1],,5,,3h[8:1],4qq5[8:4],{1},{8}56,,7h[4:1],,4,,6h[8:1],5,,,7h[4:1],,5,7h[4:1],,5-3-6-2-7-1[8:9],,,,,{1},{8}8bx,8bx,8bx,8bx,{4}8bx<5[4:1],,2>5[4:1],,8qq5[4:3],,,,1>4[4:1],,7<4[4:1],,1-5[4:1],,7-3[4:1],,{8}2h[4:3],,,4h[8:3],,,,,7h[8:3],,,5,5,,18,,1h[4:1]/2h[4:1],,,1h[4:1]/2h[4:1],,,18,,7h[4:1]/8h[4:1],,,,56,,34,,2h[8:3],,,1,2h[4:1],,1,2h[4:1],,1,2h[4:1],,1,,38,,7h[8:3],,,8,7h[4:1],,8,7h[4:1],,8,7h[4:1],,8,,16,,{1}2s6[2:1],{8}7,,8,8,,17,1h[4:1]/7h[4:1],,,,28,28,,,3x/6x,3x/6x,,24,24,,57,,1x/8x,,
2-5[8:1],,,6-1[8:1],,,2-5[8:1],,,6-1[8:1],,,2,,18,,2,2h[4:1],,4,4h[4:1],,5,5h[4:1],,7,7h[4:1],,1,1,{4}26,57,24,57,24,12,78,12,78,57,24,1q8[2:1]/2>7[2:1],,,,13,3b/5b,{8}7-4[8:1],,,3-8[8:1],,,7-4[8:1],,,3-8[8:1],,,7,,18,,7,7h[4:1],,5,5h[4:1],,4,4h[4:1],,2,2h[4:1],,8,8,{4}37,24,57,24,57,78,{8}18,18,,{4}1h[4:1]/3h[4:1],,6h[4:1]/8h[4:1],,1h[4:1]/3h[4:1],,{8}8,{4}8v6-4[2:1],,,
Ch[8:7],,,,D2/A1/A2,,,Ch[8:9],,,,,D8/A7/A8,,,,Ch[8:7],,,,D2/D3/D4/A2/A3,,,Ch[8:9],,,,,D6/D7/A6/A7,{8},D1/D2/A1/A8,{4},,Ch[8:7],,,,D3/D4/A2/A3/A4,,,Ch[8:9],{1},D6/D7/A5/A6/A7,Ch[1:1],D1/D2/D8/A1/A2/A7/A8,Cf/B3/B4/B5/B6,,
{4}7h[4:1],8,2h[4:1],1,7h[4:1],8,16,16,2h[4:1],4,7h[4:1],5,46,35,2h[4:1]/4h[4:1],,{8}1,1,4,4,3,3,7,7,5,5,8,8,1x,7x,5x,,8,8,5,5,6,6,2,2,4,4,1,1,8x,2x,E5f,,8,2,4,,8,2,4,,B8f,,B2f,,E5f,,1x,,8,2,4,,8,2,4,,B8f,,B2f,,E5f,,1x,,2h[8:1]/8h[8:1],,1h[8:1]/7h[8:1],,2,2,5,3,1h[8:1]/7h[8:1],,2h[8:1]/8h[8:1],,7,7,4,6,2,2,4,3,7,7,5,6,3,3,4,2,6,6,4,,
3bx/5bx,3bx/5bx,3bx/5bx,3bx/5bx,4bx/6bx,4bx/6bx,4bx/6bx,4bx/6bx,{4}7h[4:1],5h[4:1],3h[4:1],1b,{8}2bx/8bx,2bx/8bx,2bx/8bx,2bx/8bx,1bx/7bx,1bx/7bx,1bx/7bx,1bx/7bx,{4}3h[4:1],1h[4:1],7h[4:1],5b,{8}4bx/6bx,4bx/6bx,4bx/6bx,4bx/6bx,3bx/5bx,3bx/5bx,3bx/5bx,3bx/5bx,{4}2h[4:1],4h[4:1],6h[4:1],8b,{8}1bx/7bx,1bx/7bx,1bx/7bx,1bx/7bx,2bx/8bx,2bx/8bx,2bx/8bx,2bx/8bx,{4}6h[4:1],8h[4:1],2h[4:1],4b>5b[1:1],{1}Cf,{2},4h[4:1]/5h[4:1],
{8}6-3[8:1],,,2-7[8:1],,,6-3[8:1],,,2-7[8:1],,,6,,18,,3,3h[4:1],,1,1h[4:1],,8,8h[4:1],,6,6h[4:1],,4,4,{4}37,24,57,24,57,78,12,78,12,24,57,7<2[2:1]/8p1[2:1],,,,68,4b/6b,{8}3-6[8:1],,,7-2[8:1],,,3-6[8:1],,,7-2[8:1],,,3,,18,,6,6h[4:1],,8,8h[4:1],,1,1h[4:1],,3,3h[4:1],,5,5,{4}26,57,24,57,24,12,{8}18,{4}18,7-4[8:1]/8-4[8:1],,1-5[8:1]/2-5[8:1],,7-4[8:1]/8-4[8:1],,{8}12,{4}1V75[4:1]/2,,,
5h[8:1]/6h[8:1],5h[8:1]/6h[8:1],7b/8b,7b/8b,3h[8:1]/4h[8:1],1b/2b,1b/2b,1x/2x,{8}3h[4:1]/8h[4:1],,,1h[4:1]/6h[4:1],,,2b,,3h[4:1]/5h[4:1],,,{16}35,,{12}35,,46,{16},57,,,{1}6/8w4[4:1],E
MASTER
(185){1},,
{4}1bV35V71[2:3],{8},{32}E1,E8,E7,E6,{4}E5,,,,5,5,3h[4:7]/6,4,2,D2f/A1/A2/E2f,D8/A7/A8/E8f,D6/A5/A6/E6f,{8}4,4,{4}4-7[8:1],4b/D3/A2/A3/E3f,{8}1,1,,24,2/4-7[8:1],,4b/D3/A2/A3/E3f,,1,1,,24,2/4v7<4[4:1],,1bx/4bx,,1v6<1[4:1],,1bx/4bx,,4,,,2,2,1,{4}2x/8x,5x/7x-1[8:1],5b-3[8:1]/7b,2b/5b,1h[8:1],1-7[8:1],1b/3b-5[8:1],3/6h[8:1],6h[8:1],1/6-4[8:1],6/8-2[8:1],3/8,4h[8:1],4-6[8:1],2-8[8:1]/4,2/7h[8:1],7h[8:1],4/7-1[8:1],5b-3[8:1]/7b,2b/5b,1h[8:1],1-7[8:1],1b/3b-5[8:1],3/6h[8:1],6h[8:1],{8}56,7,4h[4:1]/8h[8:5],,,2h[4:1],,,D3/A3/D4,,1h[8:5]/5h[4:1],,,7h[4:1],,,A6/D6/D7,,
4<5v3[8:3]/5,,7,,7v6[8:1],,8,8,1<8v2[8:3],,5,,6,6v7[8:1],,4,4<5v3[8:3],,8,,7v6[8:1],,8,8h[4:1],,E6/B6/B5,,E4/B3/B4,,1x,1x,,4<5v3[8:3]/5,,7,,7v6[8:1],,8,8,1<8v2[8:3],,5,,6,6v7[8:1],,4,4h[8:11],,{8}1<7s3<6[8:7],,,{1},{8}5h[16:1],5h[16:1],5h[16:1],56,4h[4:1]/5h[4:1],,,3bh[4:1]/4bh[4:1],,,,34,4h[4:1]/5h[4:1],{4},5h[4:1]/6h[4:1],,3h[4:1]/5,1h[4:1],,{8},2x/5x,1V35[2:1]/8x,,{4}7-5[4:1],,,{8}1v6<1[4:5],,,5h[8:3],,,,,4h[4:1],,,,3,,3,,2h[8:1]/3h[8:1],,14,2h[8:1]/3h[8:1],,14,{4}14,6h[4:1]/7h[4:1],,58,3b/6b,{8}1/7h[4:17],,,C,D5/E5,,B8,D5/E5,,D8,D5/E5,,8bx>3[8:1],,,,C,,,E3f,D4/E4,,B1f,D4/E4,,D8f,D4/E4,,1bx,,1bx,,8h[8:1],,8,1h[4:1]/6h[8:1],,6,25,,3h[4:1]/4h[8:1],,4,4h[8:1]/5h[4:1],,4,5/6<1[4:1],,,,2,2>5[4:1],,,8,8,,17,1/7-5[8:1],17,1h[32:8]/7,,{32}2x,3x,4x,5x,6x,7x,8x,1x,
{8}2xv5[8:1],,12,D8/A7/A8,,2,2v5[8:1],,12,D8/A7/A8,,2,2v5[8:1],1,2b/D8/A7/A8,,12,3h[8:1]/8h[8:1],,12,4h[8:1]/8h[8:1],,12,5h[8:1]/8h[8:1],,12,6h[8:1]/8h[8:1],,1b/2b,{4}7b<5[8:1]/8b,1>3[8:1]/7b,1b/7-4[8:1],7b/8-3[8:1],7/8b-5[8:1],1-4[8:1]/8b,1b-6[8:1]/8,1b/2-5[8:1],1/2b,{8}8,7,56,,4,3,1z5[8:3]/2z6[8:3],38,12,,,,,{512}6-8[8:1],5v3>1[8:1],{256},{128},{64},{32},{16},{8},5bx/6bx,,8x,7,2-4[8:1]/6-4[8:1],,26,,8,7,2-4[8:1]/6-4[8:1],,26,,8,7,16,3,17,2h[8:1]/8h[8:1],,17,3h[8:1]/8h[8:1],,17,4h[8:1]/8h[8:1],,17,5h[8:1]/8h[8:1],,1b/7b,3b-5[8:1]/4b,,7-1[8:1],7,3<5[8:1],3,7>1[8:1],7,3-5[8:1],3,7-1[8:1],7,3<5[8:1],3,7,,6,5,4bx/6bx,,6,5,4bx/6bx,,57,46,3bxh[8:3]/5bxh[4:1],{4},6>8[4:1],,,
2xq6q2b[4:5],,,,Cfh[2:1],,,{16}8,8,,,{8},7,6p2p6b[4:5],,,4,,,{1}Cfh[4:3],1p5p1b[4:5],{4}Cfh[2:1],,,{16}8,8,,,{8},7,6>3b[8:3],,,1,,,C,3p6b[4:1],{4},,,4h[4:1],8q4q8b[1:1],3,,Cfh[2:1],,,{16}1,1,,,{8},2,3q7q3b[4:5],,,5,,,{4}Cfh[4:3],,,,8q4q8b[4:5],,3,,{1}Cfh[2:1],{4}8>1-3<4[8:3]*<7-5>4[8:3],,,{16},Cf/B2/B4/B6,,,{4},,,2-5[8:1]/7,
5b,6h[2:3],{8},5,5,,,4,4,,,5,5h[4:7],,,6,6,,,4,4,,3x,3xh[1:0],3x,3xh[1:0],3x<6[8:1],,,,{16}3,5,4,6,5,,57,,6,4,5,3,4,,15,1>4[8:1]/5,,,7,,{8}8z4[4:1],,1x,1x,1xh[8:1],D7/A6/A7,{16}3,5,4,6,5,,57,,6,4,5,3,4,,15,1>4[8:1]/5,,,{8}7,8z4[4:1],,3x>1b[16:1],3x,,,1x,24,1x,D7/A6/A7,1x,24,1x,D7/A6/A7,1h[8:1],,2h[8:1]/4h[8:1],,1-5b[16:1],,{32}1b/D7/A6/A7,Cf,,,{8},1x,24,1x,D7/A6/A7,1x,24,1x,D7/A6/A7,1h[8:1],,2h[8:1]/4h[8:1],,1h[4:1],,{48},2bx/8bx,3bx/7bx,4bx/6bx,,,{8},2>6b[16:3]/5,{16},E5,E4,,,8,8h[8:1],,7h[8:1],,6h[8:1],,5,,4/7<3[16:3],,,E5,E6,,,1,1h[8:1],,2h[8:1],,3h[8:1],,4,,,,5,4,5,3,5,3,6,4,6,4,5,4,{8}5x-3-6-2-8[2:1],,1h[2:1],A3,A6,A2,A8,,2x/7x,
4bx/5bx,4bx/5bx,4bx/5bx,{16}3bx,4bx,3bx,,4bx/5bx,,6bx,5bx,6bx,5bx,{4}6b-8b[8:1],1b-5b[8:1]/6b,1b/4b-2b[8:1],4b/8b,{16}7bx,8bx,7bx,,2bx,1bx,2bx,,3bx/8bx,,5bx,6bx,5bx,,4bx/8bx,,{4}3b-1b[8:1],3b/8b-4b[8:1],5b-7b[8:1]/8b,1b/5b,{16}3bx/8bx,,2bx/7bx,,1bx/6bx,,7bx,8bx,7bx,,1bx/2bx,,3bx,4bx,3bx,4bx,{4}3b-5b[8:1],3b/6b-2b[8:1],1b-7b[8:1]/6b,1b/5b,{16}2bx,4bx,2bx,,7bx,5bx,7bx,,1bx/8bx,,2bx/7bx,3bx/6bx,4bx/5bx,,2bx/7bx,,{4}6b-4b[8:1],3b-7b[8:1]/6b,3b/8b-2b[8:1],4b/8b,1bxv6<1[2:1],,,{8},2bh[4:1],,5,6,7bh[4:1],,8,{32}2x,3x,4x,5x,6x,7x,8x,1x,
{8}2x-5-1[4:1]/6x,,27,D1/D8/A8f,,7,2-5-1[4:1]/6,,27,D1/D8/A8f,,7,2-5[8:1]/6,7,2/D1/D8/A8f,,2b/8b,3bh[8:1]/7bh[8:1],,2b/8b,4bh[8:1]/7bh[8:1],,2b/8b,5bh[8:1]/7bh[8:1],,2b/8b,6bh[8:1]/7bh[8:1],,2b/8b,{4}5b/6b<8[8:1],4>2[8:1]/6b,4b/6-1[8:1],5-2[8:1]/6b,5b-8[8:1]/6,4-1[8:1]/5b,4b-7[8:1]/5,3-8[8:1]/4b,3b/4,{8}4,3,12,,5,6,7<4[8:3]/8s4[8:3],16,78,,,,,{512}6-8[8:1],5v3>1b[8:1],{256},{128},{64},{32},{16},{8},5bx/6bx,,1x,2,3-6[8:1]/7-4[8:1],28,3b/7b,,1,2,3-6[8:1]/7-4[8:1],28,3b/7b,,1,3,28,5,1b/6b,2bh[8:1]/8bh[8:1],,1b/6b,3bh[8:1]/8bh[8:1],,1b/6b,4bh[8:1]/8bh[8:1],,1b/6b,5bh[8:1]/8bh[8:1],,1b/6b,{8}5b/7b-1[8:1],,3-5[8:1],3,7>1[8:1],7,3<5[8:1],3,7-1[8:1],7,3-5[8:1],3,7>1[8:1],7,3,,3,1,2bxh[4:1]/8bx,,3,1,2bxh[4:1]/8bx,,1,28,1bxh[8:3]/7bxh[4:1],,,{4}6>8[4:1],,5x-2[8:1],
{8}5b/6b-1[8:1],7,5b/6b,4,3h[8:1]/8h[8:1],,1<6[8:1]/2>5[8:1],,1b/2b,,3h[8:1]/8h[8:1],,5h[8:1]/6h[8:1],,34,2,1bh[4:1]/6bh[4:1],,,3bh[4:1]/8bh[4:1],,,D2/D3/D7/D8/A2/A7,,1bh[4:1]/8bh[4:1],,,{16}2xh[16:1]/D8/E8f,,{12}6xh[16:1]/D2/E2f,,3xh[16:1]/D7/E7f,{16},5xh[16:1]/D3/E3f,,,{4}4x>3v8b[8:1]*<5v8b[8:1],{16}4b,Cf,,,{2},E
Re:MASTER
EXPERTとMASTERを追加しました-- paru (2026-01-18 11:17:03)
最終更新:2026年01月18日 11:17