アットウィキロゴ

さくゆいたいそう

アーティスト さくゆい

BPM BASIC ADVANCED EXPERT MASTER Re:MASTER
160 2 6 9+ 12+ -

EXPERT MASTER Re:MASTER
譜面制作者 佑 メロンポップ -

BASIC


ADVANCED


EXPERT


MASTER

(160)
{4}3h[1:2],4,,4,,5,,5,6h[2:3],5,,5,,4,,6/3,
{8}2,B6,2,B5,3,B6,3,B5,4,B6,4,B5,3,B6,3,B5,2,B6,2,B5,1,B6,1w5[8:1],,
{4}A1f,,,,1h[4:1],2h[4:1],3h[4:1],4h[4:1],5h[4:1],6h[4:1],
{8}7h[4:1],8,{4}8,2,2h[4:1],3h[4:1],4h[4:1],5h[4:1],6h[4:1],
{8}7h[4:1],8,{4}8,3h[4:1],2h[4:1],3h[4:1],4h[4:1],5h[4:1],6h[4:1],
{8}7h[4:1],8,{4}8,4h[4:1],2h[4:1],3h[4:1],4h[4:1],5h[4:1],6h[4:1],
{8}7,8bx,8bx,,7h[4:3],5,5v2[4:1],,,,,,2h[4:3],4,
{4}4v7[4:1],,,4qq6[2:1]/7pp5[2:1],,,,1>5[4:1],5<1[4:1],1>5[4:1],5,
{8}7h[4:3],5,5p3[4:1],,,,,,2h[4:3],4,4q6[4:1],,,,,,
{8}2>5[8:1],1,2,,8/7,7/8-3[8:1]*-5[8:1],,8,,2/6,2h[4:1]/6h[4:1],,,8bx,8bx,,
{16}2/6,,3,5,,,{8}6/2-6[8:1],2/6,8b,8b,,7,6,{4}C,1b/7b,8b/2b,
{16}7/3,,6,4,,,{8}3/7-3[8:1],7/3,1b,1b,,8>3[8:1]/4<7[8:1],,,,7/3,6/4,7/3,,
{16}2/5,,3,4,,,{8}5/2-5[8:1],5/2,7b,7b,,{4}7p2q7[2:1]/6>3<6[2:1],7/6,,,
{16}7/4,,6,5,,,{8}4/7-4[8:1],4/7,2b,2b,,{4}3-6[4:1]/6-3[4:1],,,B7f,
{8}3/5,5/3,{4}3h[2:1]/5>1[4:1],,,8-5[4:1]/5qq5[4:1],,,
{8}7,8,{4}8h[4:1]/2h[4:1],,1h[4:1]/7h[4:1],,1-4[4:1]/4pp4[4:1],,{8},3x,3x,,6/4,4/6,
{4}6h[2:1]/4<8[4:1],,,1-5[8:1]/2-5[8:1],,8-3[8:1]/7-3[8:1],,
{4}4>5[2:1]*<3[2:1],,,,1h[4:1]/8h[4:1],
{16},,6,5,7,,{8},7/4,7h[8:3]/4h[8:3],,,,2/5,2h[4:1]/5h[4:1],,,
{8}6/4,6/4,7/3,7/3,8/2,8h[4:1]/2h[4:1],,,,
{4}8q2[1:1]/4q6[1:1],,,,,,
{8},4/5,{4}5/4<8[4:1],8<4[4:1],5,8-4[4:1],4>1[4:1],1>5[4:1],4,
{8}1,1,1/8,1h[4:1]/8h[4:1],,,{4}8/7,1/2,8/7,
{8}2-4[8:1]/6-4[8:1],1/7,6/2,,7x-5[8:1]/3x-5[8:1],8x/2x,
{4}3x/7x,8h[8:1]/2h[8:1],8/2,1h[8:1]/3h[8:1],3/1,
{4}1h[8:1]/7h[8:1],7/1,8h[8:1]/6h[8:1],8/6,
{8}6h[4:1]/4h[4:1],,,5/3,5h[4:1]/3h[4:1],,,7/2,8h[4:1]/1h[4:1],,,,
{4}5/3,6/4<8[4:1],8<4[4:1],5,8-4[4:1],4>1[4:1],1>5[4:1],4,
{8}1,1,1/8,8h[4:1]/1h[4:1],,,
{4}8h[8:1]/7h[8:1],2h[8:1]/1h[8:1],8h[8:1]/7h[8:1],
{8}6/2,5/3,6/2,,7/3,6/4,
{4}7/3,8h[8:1]/2h[8:1],B6/B5/B4,1h[8:1]/3h[8:1],B4/B5/B6,7h[8:1]/1h[8:1],B3/B4/B5,
{8}8/6,8/6,8/6,5h[4:1]/2h[4:1],,,4/3,,7h[8:1]/4h[8:1],,6/5,4/7,,7b/2b,
{4}7b/2b,7b/2b,2>5[4:1]/6<1[4:1],,,1h[4:1]/8h[4:1],,
{8}3h[8:3]/6h[8:3],,,,,B2/B5/E5/E3,4h[4:1]/3h[4:1],,,,
{8}7,5,6,4,8,5,6,4,1,5h[8:1],,8bx/2bx,2bx/8bx,,3,4,2,5,3,4,1,5,3,4,8,4,3h[4:1],
{16}B8,B7,B6,,,,
{48}1xh[4:1],5xh[4:1],,,{12},,,,,
{48}2xh[4:1],6xh[4:1],,,{12},,,,,
{48}3xh[2:1],7xh[48:23],,,{12},,,,,
{48},{72}E8/E4,B8/B4,B1/B5,{48}E2/E6,{12},,{4},,
{4}8<4[2:1]/4>8[2:1],,,,8/4,8-3[8:1]/4-7[8:1],,
{4}8<3[4:3],,3,2,1<4[4:3],,4,3,2<5[4:3],,5,4,3>6[4:3],,6,5,4-8[8:3],3,
{8}2,2,,7/1,7h[4:1]/1h[4:1],,,7/1,,7/1,6/2,6h[8:3]/2h[8:3],,,,7/3,7h[4:1]/3h[4:1],,,
{8}7/1,7/1,6/2,6/2,5/3,5h[4:1]/3h[4:1],,,,
{4}Ch[4:5]/1>7V52[1:1],,,,,,
{8},8/1,
{4}8/1,7/5,8/6,7h[4:1]/5h[4:1],,2/4,1/3,4h[4:1]/2h[4:1],,
{4}1/2,8/7,1/2,8/7,6-4[8:1]/2-4[8:1],6/2,3x-5[8:1]/7x-5[8:1],3x/7x,
{4}8h[8:1]/2h[8:1],8/2,1h[8:1]/3h[8:1],3/1,7h[8:1]/1h[8:1],7/1,8h[8:1]/6h[8:1],8/6,
{8}4h[4:1]/6h[4:1],,,5/3,5h[4:1]/3h[4:1],,,4/7,4/7,
{16}6,5,7bx,,3,4,2bx,,,,
{4}7bx/4bx<8b[4:1],A4f/8<4b[4:1],5,8-4b[4:1],4>1b[4:1],1>5b[4:1],4,
{8}1,1,1/8,1h[4:1]/8h[4:1],,,
{4}8h[8:1]/7h[8:1],2h[8:1]/1h[8:1],8h[8:1]/7h[8:1],
{8}2b/6b,3b/5b,6b/2b,,7b/3b,6b/4b,
{4}7b/3b,8/2,5/4,8/2,5/4,1/7,4/5,
{8}7/1,1/7-3[8:1],,{64}7x/1x,Cf,,,,,,,
{4},8/2-6[8:1],{64}2x/8x,Cf,,,,,,,
{8},5x/4x,4x/5x,,6b/3b,
{4}7b/2b,7b/2b,2>5b[4:1]/6<1b[4:1],,,8/1,8-4b[8:1]/1-5b[8:1],
{8}8/1,,,,,6bx/2bx,1bxh[2:7]/7bxh[2:7],,
E

Re:MASTER


名前:
コメント:

タグ:

+ タグ編集
  • タグ:
最終更新:2026年04月07日 00:41