| アーティスト |
Clean Tears feat. Youna |
EASY
BASIC
ADVANCED
EXPERT
MASTER
(132){1},{16}
1,,,8,,,7,,,6^1[16:1],,,,,,,
2,,,3,,,4,,,5^2[16:1],,,,,,,
6,,,7,,,8,,,1^6[16:1],,,,,,,
35,,,15,,,48,,,46,,,5b/7b,,,,
3,,,5,,,7h[8:3],,,1-5[16:1],,,,,,,
4,,,6,,,8h[8:3],,,2-7[16:1],,,,,,,
37,,,26,,,18,,,8^3[16:1]/4^7[16:1],,,,,,,
13,,,37,,,68,,,26,,,8-3[1:1]/6-1[4:7],,,,
{1},
,
{16}
28,,,,15,,,,37,,,,26,,37,26,
,,37,,4h[8:3]/8h[8:3],,,,,,,,1,,5,5h[16:3],
,,4,,3,,7,7h[16:3],,,6,,34,,25,,
16,,7-3[16:1],,8-4[16:1],,,,,,,,,,6,6,
4^7[8:1],,,,2^5[8:1],,,,8^3[8:1],,,,,,4,5h[2:1],
,,6,,7,,8,8h[16:5],,,,,7,,8,1h[16:3],
,,2,,5,,6,5h[16:3],,,6,,48,,37,,
26,,15,,26,,37,4h[16:3]/8h[16:3],,,,,1b/5b,,,,
5,,4,,,1-5[16:1],,,5-2[16:1],,,2-7[16:1],,,,,
,,8,,,1^6[16:1],,,6-3[16:1],,,3^8[16:1],,,,,
,,1,,,8-4[16:1],,,7-3[16:1],,,6-2[16:1],,,,,
,,1,,,1-5[16:1],,,2-6[16:1],,,3-7[16:1],,,,,
1^6[8:1],,,3^6[8:1],,,,,,,,,,,7-4[16:1],,
3-8[16:1],,,,,,1b/5b,2b/6b,,,8^3[8:1],,8-4[16:1],,,,
,,2-6[8:1],,1^6[16:1],,,,,,37,,26,,15,,
1-4[8:1],,5-8[4:1],,,,,,,,1,,1-5[8:1],,1^6[8:1],,
1^4[4:1],,,,,,,,,,,,,,8,,
3,,8^3[8:1],,3-7[16:1],,,,,,4^1[8:1],,6^1[16:1],,,,
,,2^5[8:1],,8^5[16:1],,,,,,3^8[8:1],,8^5[4:1],,,,
,,,,4,,37,2b/6b,,,1,,1-6[8:1],,6-3[8:1],,
3-8[4:1],,,,,,,,,,,,,,8,,
1^6[4:1],,,,2,,2,2,,,3-7[16:1],,6-3[16:1],,,,
,,2-6[16:1],,7-2[16:1],,,,,,6,,7,,8,,
6^1[16:1]/1,,,,2,,2b,,,,5,,5-2[8:1],,2-7[8:1],,
7-4[4:1],,,,,,,,,,,,,,,,
1-5[4:1],,8-4[8:1],,1,,8,,,,12,,56,,34,56,
,,3h[8:5]/7h[8:5],,,,,,,,,,,,,,
27,,,15,,,48,,{12}48,15,26,{16}3b/7b,,,,
{2}
8-5[8:1],6-3[8:1],
1-4[8:1],{8}5-8[8:1],8-4[8:1],{4}4-1[8:1],
8-5[8:1],,2-6[8:1],,
7-3[8:1],1-5[8:1],1-4[8:1],1-6[4:3],
{1},,
E
Re:MASTER
(132)
{16}45,,,34,,,45,,,5/6v8[16:3],,,4,,4,,4,,,65,,,54,,,4/3v1[16:3],,,5,,5,,
5,,,34,,,45,,,5/6v8[16:3],,,4,,4,,4,,, 65,,,34,,,12,,,7b/8b,,,,
45,,,23,,,45,,,6/7v8[16:3],,,5,,5,,5,,,76,,,54,,,3/2v1[16:3],,,4,,4,,
4,,,23,,,45,,,6/7v8[16:3],,,5,,5,,5,,,46,,,24,,,28,,,6-1[4:5]/8-3[4:3],,,,
{1}6b/8b,{12}2,2,2,{24}2,3,4,5,6,7,8-4[8:1],,,2,1,2,{4}8b,
3-6[8:1],7-4[8:1],2-5[8:1],{16}6,,7,7h[16:5],
,,6,,{4}5-2[8:1]*-8[8:1],5,{16}3h[16:3]/7,,5-1[8:1],5,
,,4,,3h[16:3],,2-7[8:1],2,,,{8}5,4,36,25,14,25,{16}3qq3[4:1]/4pp3[4:1],34,{2},
{4}6-3[8:1],2-5[8:1],7-4[8:1],{16}3,,2,2h[16:5],
,,3,,4-7[8:1]*-1[8:1],,4,4,,,,,6h[16:3]/2,,4-8[8:1],4,
,,5,,6h[16:3],,7-2[8:1],7,,,{8}4,5,63,47,36,25,{16}14,1-6[8:1]/4-7[8:1],{2},
{16}4b/5b,,3h[16:3],,2,2h[16:3],,1,1h[16:3],,2,2h[16:3],,3,3,,
45,,6h[16:3],,7,7h[16:3],,8,8h[16:3],,7,7h[16:3],,6,6,,
45,,3h[16:3],,1,1h[16:3],,8,8h[16:3],,6,6h[16:3],,5,5,,
{4}3bz7[8:1]/4bs8[8:1],34,{12}1-4[8:1]/6-3[8:1],16,16,1b/6b,,,
{16}78,,,45,,,{8}1/2-5[8:1],8-5[8:1],2b,8b,4,34,12,78,{16}56,4b/7b,{8},1q6[8:1]/2^5[8:1],78,12,
,8p3[8:1]/7^4[8:1],21,87,,26,37,48,5-2[8:1]/1-6[8:1],,51,,3-8[8:1],4-7[8:1],3,4,
{16}2,,,54,,,{8}8/7-4[8:1],1-4[8:1],7b,1b,5,3/6<2[8:1],2v4[8:1],4,{16}3,3b,{8},1q6[8:1]/2^5[8:1],78,12,
,8p3[8:1]/7^4[8:1],21,87,,25,36,47,58,36,14,{16}36,27,,,6,5,6,5,47,,
3h[8:1]/6h[8:1],,,2h[8:1]/5h[8:1],,,{8}1h[8:1]/4h[8:1],,3b/5b,1b/7b,2h[4:1]/8,
4h[8:3],,5h[8:1],{16},4b/5b,{8},7V53[8:1]/8V64[8:1],12,78,
,2V46[8:1]/1V35[8:1],87,21,,37,26,15,8^3[8:1]/4^7[8:1],,84,,2-5[8:1],1-6[8:1],2,1,
{16}4qq4[16:3],,,4pp4[16:3]/5,,,{8}7,,1b,2b/8b^5[4:1],,
5-2[8:1],2-6[8:1],6-1[8:1],1-5[8:1],,4,3,{16}2,2qq7[16:7],
{8}8h[4:1],2,,6h[2:1],,,8,{16}2,2,5b,,3,6b,4,,6/7b,,{12}5b-1[8:1]/8b-4[8:1],5b/8b,5b/8b,5b/8b,,,
{8}7bV53[4:1],,3,,1-5[8:1],5-1[8:1],1,,6-8[8:1],8-4[8:1],4-2[8:1],,1p4[8:1],,5-8[8:1],,
2V47[4:1],,7,,8-4[8:1],4-8[8:1],8,,5-7[8:1],7-3[8:1],3-1[8:1],,8p3[8:1],,4-7[8:1],,
{1}1b<1[4:3],,,,E
- Re:MASTER譜面を追加しました。修正等ありましたらよろしくお願いします。 -- けもがみ (2026-04-06 19:59:49)
最終更新:2026年10月04日 21:01