BASIC
ADVANCED
EXPERT
MASTER
(132)
{1},
(74.3){32},,,,,,,,,,,C1h[32:5],,,,,,,,,,,,,,,,,,,,,,,,,(132){4}6,6,6,,
{4}8,8,17,7-3[4:1]/1-5[4:1],,,
{4}4,4,35,35,46,46,3<6[4:1],,,7,
{4}8-5[4:1],3,2,2,
{4}1-4[4:1],6,7,7,
{4}7h[4:1]/5h[4:1],,2h[4:1]/4h[4:1],,57,7/5V31[4:1],6h[4:1],,
{16},,3,4,2,,,,2h[16:3],,,3h[16:3],,,4,,,,25,,5/2-4[8:1],,,,8-6[8:1],,,,,,,,
{16},,6,5,7,,,,7h[16:3],,,6h[16:3],,,5,,,,74,,4-1[4:1]*>1[4:1],,,,,,,,,,,,
{16}34,,,,3h[16:3],,,2h[16:3],,,1,,1pp1[3:1],,,,,,,,,,,,,,
{8}8,8-4[8:1],,1-5[8:1],,6,,7,7,5,5,8,8,1h[4:1],,
{8}4,4,2,2,
{4}5<8[8:1],3,1>4[8:1],7,
{4}5<8[8:1],3,1>4[8:1],7,
{4}8h[4:1],4q5[2:1],,,C1,,{8},
{8}27,1>4[8:1]/8<5[8:1],,
{16}1bx/8bx,,,,36,,,,8h[16:3],,,6h[16:3],,,5-8[8:1]*-2[8:1],,
{16},,,,,,1,,1h[16:3],,,2h[16:3],,,4,,
{8}13,,86,,24,3,75,6,
{4}2>5[8:1],8qq8[4:1],3,1,
1-5[8:1]/2-4[8:1],1x/2x,8-4[8:1]/7-5[8:1],8x/7x,
1-5[8:1]/2-4[8:1],1x/2x,87,2>5[8:1]/6<1[8:1],
,8-5[8:1]/4-1[8:1],,26,
{8}E7f,B5f,B4f,E3f,,27,1>4[8:1]/8<5[8:1],,
{16}1bx/8bx,,,,36,,,,1h[16:3],,,3h[16:3],,,4-1[8:1]*-7[8:1],,
{16},,,,,,8,,8h[16:3],,,7h[16:3],,,5,,
{8}5,,24,,1-5[8:1],1,7pp4[8:3],,
3,,,3,2-5[8:1],2,6,6,
{4}8-4[8:1]/7-5[8:1],8x/7x,1-5[8:1]/2-4[8:1],1x/2x,
8-4[8:1]/7-5[8:1],8x/7x,12,7-4[8:1]/3-8[8:1],
,5<8[8:1]/1>4[8:1],,73,
{8}E3f,B1f,B8f,E7f,,,4>7[4:5],,
{4}5,5,5,5,
5,5,5,5<2[4:5],
4,4,4,4,
4,4,4,4V28[2:1],
5,5,5,5V71[2:1],
4,4,4,4>1[4:1],
6,5<8[4:1],3,4,
{12}75,75,75,,24,24,24,,,18,,,
31,31,31,,68,68,68,,,5<8[4:1]/4>1[4:1],,,
{1},
{4}E5,65,,65,
,34,,34,
E5,E3,E1,E7,
E5,,3,24,
,34,,75,
,65,,4/2q6[4:1],
,7>2[4:1],,5s1[8:3],
{8},,,,,83,2>5[8:1]/1<6[8:1],,
{16}2bx/1bx,,,,74,,,,3h[16:3],,,2h[16:3],,,1>4[8:1]*<6[8:1],,
{16},,,,,,75,,75,,,18,,,24,,
{4}4/2-7[8:1],6-3[8:1],1-5[8:1],7<4[8:1],
{8}1,1,,4,2q6[8:1],2,6,7,
{4}8-4[8:1]/7-5[8:1],8x/7x,1-5[8:1]/2-4[8:1],1x/2x,
8>3[8:1]/7<4[8:1],8bx/7bx,1b/2b,7-4[8:1]/3-8[8:1],
,1>4[8:1]/5<8[8:1],,73,
{8}E7f,B5f,B4f,E3f,,4x/5x,4x/5x,,
{16}3-8[8:1],,,,5,,6,,6,5,6,5,6,,,,
6-1[8:1],,,,4,,3,,3,4,3,4,3,,,,
{8}2-6[8:1],2,7-3[8:1],7,1V35[4:1],1,8,8,
1,1,84,84,,12,1-5[8:1]/2-5[8:1],,
{4}1x/2x,8-4[8:1]/7-4[8:1],8x/7x,
1-5[8:1]/2-5[8:1],
1x/2x,8-4[8:1]/7-4[8:1],8x/7x,2h[4:1],
8b<4[4:1],4>8[4:1],8,4,
{16}75,,18,,24,,5xv2[6:1],5xh[16:5],
E
Re:MASTER
(132)
{1},
(74.3){32},,,,,,,,,,,C1h[32:5],,,,,,,,,,,,,,,,,,,,,,,,,(132){4}6,6,6,6-4[8:1],
{8}3,,3,,3,,{16}3,,,5xh[16:3],{8}3,,3,,2-5[8:1],,6,,
{8}5h[16:1]/6,,5h[16:1]/6,,6,,6,,5qq3[8:1]/7,,7,,7-5[8:1],,4,,
{8}4q1[4:1]/3,,3,,3,,3,,
{8}4q1[4:1]/3,,3,,3-6[8:1],,8,,
{8}8,,8,,7/6,,7/6,,
{8}Ch[16:7]/B4/B5/E5/D5,,,,,1x,1x,,
{16}6/2,,3,5,4,,,,6h[16:2]/4h[16:2],,,7h[16:2]/5h[16:2],,,7>4[8:3]/5,,,,E5,,,,,,1-4[8:1],,,,,,,,
{16}3/7,,6,4,5,,,,3h[16:2]/5h[16:2],,,2h[16:2]/4h[16:2],,,4-1[8:1]*^1[8:1],,,,4<8[12:3],,,,1b,,1b,,,,2/4,,,,
{16}2/4,,,,5h[16:2]/3h[16:2],,,5/3,,,1,,1qq1[16:5],,,,5,,,,4h[16:2],,,4,,,4/3,,4/3,,5xb/2xb,,
{16},4h[16:1]/2h[16:1],,,4h[16:1]/2h[16:1],,,3,4,,4,2,,2,4,,7,5,7,,8/4,,8/4,,7-1[8:1],5,6,,7/3-5[8:1],,,,7-4[8:1],,,,3>7[4:1],,,,5,,5,,5-7[8:1],,,,2-4[8:1],,,,6^1[4:1],,,,3xqq5b[4:1],,3x,,,,,,6x,,,,
{16}7/1,,2,,4/3,,3,5,,6,6/5h[8:7],,,,,,,,,,,,{32}7x,8x,1x,2x,3xw7[8:1]/4x,,,,,,,,
{16}A3f/D4/A4,,,,1x/2x,,,,3/4,,6,5,,7,8V64[8:1]*p3[8:1],,,,8,,,,2,2,4,,5/3,,4-1[8:1]*-2[8:1],,4,,4-7[8:1]*-6[8:1],,,,4,,,,1x/8x,,6,5,,2,4-8b[8:1]*-7b[8:1],,,,4b,,,,
{16}1,8,2h[16:2],,5,4h[16:2],,7h[16:3],5h[16:2],,,,,
{16}4-8[8:1],4,6,3,4,,,,1-5[8:1],1,7,2,1,,,6,,6/5,,7/5,7bh[16:3]/5bh[16:3],,,,,
{16}8^5[8:1],,5pp7[8:1],,3,,,1,1pp4[8:3],,5,,6^8[8:1],,,,,,,,
{16}7/5,,8/1,,4/2,,7/5,7/5h[16:5],,,{32}7x,8x,1x,2x,3xw7[8:1]/4x,,,,,,,,
{16}A3f/D4/A4,,,,8x/1x,,,,7/8,,6,5,,3,4^7[8:1]*q8[8:1],,,,4,,,,2,2,1,,8/1,,7-3[8:1],,7,,7^2[8:1]/3^6[8:1],,,,7/3,,,,1x/5x,,2,4,,7,5^8[8:1]*^2[8:1],,,,5bx,,,,
{16}8,1,7h[16:2],,4,5h[16:2],,2h[16:3],4h[16:2],,,,,
{16}5-1[8:1],5,3,6,5,,,,8-4[8:1],8,2,7,8,,,7^2-6[4:1],,6,,4h[4:1],,,,,,7-4[8:1]/8-4[8:1],,1,,,,,,
{16}5/2,,3/4,,1>6[8:1]/2>6[8:1],,,,,,,,
{16}7x/5x,,8/1,,4/2,,7/5,7/5h[16:3],,,6,4,8b,,,,
{4}6/2^5[4:1],5^8[4:1],8^3[4:1],3V17-5[8:5],4b,4,4,
{4}4<8[4:1],2,5>1[4:1],7,4<8p2[4:2],2,3,1,
{4}2/8^5[4:1],5^2[4:1],2^7[4:1],7^4[4:1],4V68-2[8:4],3b,3,3,
{4}4>8[8:1]/3^8[8:1],,5<1[8:1]/6^1[8:1],,
{4}4p6[8:3]/3>6[8:3],,,{24},,,6,5,4,{16}3b,,,,
{12}1/3,1/3,1/3,,8/6,8/6,8^5[8:1]*^3[8:1]/6,,,8b,,,
{8},,,,,Ch[8:3],,,A8/A1/D1/E1,,,,,,8/2,,,,7/1,,,,3/5,,A6/A5/D6/E6,,A4/A3/D4/E4,,A7/A6/D7/E7,,8xpp8[4:2]*qq8[4:2],,,,,,,,
{8}1-3[8:1],,,,4-8[8:1],,,,1h[4:3],,7,,7,,5,,6<3[4:3],,5h[4:3],,,,,,,,
{16}4/3,,4/5,,6,,7/5,7/5h[16:5],,,{32}7x,8x,1x,2x,3xw7[8:1]/4x,,,,,,,,
{16}A3f/D4/A4,,,,1x/2x,,,,3/4,,6^3[8:1],5,7,,8-5[8:1]*-3[8:1],,,,8b,,,,5x/3x,,1/2,,7,8,6-8[8:1],,5x/4x,,
{16}6-4[8:1]/3-1[8:1],,,,6x/3x,,,,5/2,,3,4,,2,1q5[8:1]*^6[8:1],,,,1b,,,,7/6,,8/1,,2,4,,7h[16:3],5h[16:2],,,,,
{16}4-8[8:1],4,6,3,4,,,,1-5[8:1],1,7,2,1,,,,3-7[8:1],3,4,2h[8:3],A3f,,,,,
{16}8-4[8:1]*V64[8:1],,1,,,,,,2>7[8:1]*q7[8:1],,1,,,,,,8x,,,,
{16}6/7,,5/4,,3/2,,7/1,1b/7b,,,
{16}5/3,,6-4[8:1]/2,,,,3-1[8:1],,2,,7<3<7[16:6],,6,,1x,,1x,,1-5[8:1],,2x,,8-3[8:1],,7,,4-8[8:1],,5,,8x,,7,,6/1^4[8:1],,7/8,,
{16}1^6[8:1],,5,,1-5[8:1],,5,,1,,7,,8-3-7-5[16:6],,1,,2,,2,,1x,,1x,,,
{16}2,2,4,3,4,2,,8x/1,,3,4,2,5h[8:1],,1h[8:1],,4,4,,7^2[8:1],,6/4,,7x,,3,3h[8:1],,4,,6/1,,2,1,3,8b-3b[8:1]*-4[8:1],,7x/5x,,8x,,,,7/4,,6,5,7,,2,4,3,4,1h[8:1],,
{16}3b,,3b/5b,,5b/7b,,4b/8b,4bxh[32:7]/8b^5[32:3],,,,{32}3,2,1,,,,,,,,
E
最終更新:2026年04月08日 20:37