| アーティスト |
owl*tree feat. べんざ |
BASIC
ADVANCED
EXPERT
MASTER
(221)
{1},
{12},,,,,,,,3,5,,,{4}2/6,
3/7,2/6pp5[2:1],3qq4[2:1],
{12},,,,,,,,6,6,,,{4}5/7,
4/6,3/5,2/4z8[2:1],
3h[2:1],,,7,
{2}7bh[4:1]/5bh[4:1],{4}7/5,4/5,
{6}2/4,2/4,{12},4/5,,,6,5,,,{4}7/4qq1b[2:1],
7,6,6,
2/7,{12}4b,,4b,,,6,5,,5,
{4}7,7/8,5/6,3/4,
{6}1/2,1-5[6:1]/2-4[6:1],{12},1/2,,,,{4}6,
4/7<4[4:1],8,1q5[4:1],8,
{6}7x-3-6-4[2:1],7x,1x,1bx,{12},,,,{4}2h[4:1],
4h[4:1],5h[4:1],7h[4:1],
3h[4:1],1h[4:1],8h[4:1],6,
7/B3/E4,2/B6/E6,8/C,{12}2,,2,
{6}8,{12}8,1,,1,{6}7,{12}7,4b>5[2:3],,,{1}5b,
{4},,,,4/5,
6h[4:1],7h[4:1],8h[4:1],
7h[4:1],6h[4:1],7h[4:1],8,
{1}6/8w4[4:3],
{4},,2/6,5h[4:1],
4h[4:1],3h[4:1],4h[4:1],5h[4:1],
4v6[4:1],6v1[4:1],,,{2}5h[2:3]/8-2[8:1],
3-8[8:1],
7-3[8:1],{4}4,3/6,
2h[4:1],3h[4:1],4h[4:1],3h[4:1],
2h[4:1],3h[4:1],4h[4:1],5h[4:5],
{2}4-7[8:1],6x-1[8:1],
8x-4[8:1],{4}2/6,4/5,
2/4,4/5,7/5,4/5,
{1}3b/7b,
{2}4/5h[1:2],6,
A7/D8/E8,6,
4h[1:2],3,
D2/A2/E2,3,
6h[1:2],5,
{1}Ch[2:1],
{2}7h[2:1],8h[4:3],
{4}1h[2:1],,,7,
{12}6-4[4:1],,,,,3,3,,,,,2,
{4}2,3/4,4/5,5/6,
{12}4/7-4[4:1],,,,,3,3h[2:1],,,,,4x,
{6}4x,3x/4x,3x/4x,4x/3x-6[4:1],{12},{4}5,
{6}7,7,{12},6/5,{4}6/5,{12}7h[6:1],,5p3[8:3],
,,,,,,,,,{4}2x,
3/4,2/4,5/6,5/7,
8/1>8[2:1],Cf,{12},,,,,,{6}1,
{12}1,8,,8,{6}1,{12}1,2,,2,
{6}3,{12}3,4,,4,{6}5,{12}5,6,,6,
{6}7,{12}7,8,,8,{4}1,{12}1/2,,7/3-7-1[3:1],
,,,{4}1b-4[4:1],,5,
{6}6,{12}6,5,,5,{6}4,{12}4,3,,3,
{6}7,{12}7,5,,5,{4}4,3/4,
2/1V75[2:1],2,1,1,
7/8V24[2:1],7,8,8,
1/3,4/5,6/8,1/8,
2/3,4/5,6/7,1/8,
{12}1,8,1,7,2,7,3,6,3,5,4,5,
{2}3/6,{4}4/5,1/8,
{24}1x,2x,3x,4x,5x,6x,7x,8x,1x,2x,3x,4x,{6}5x/6x,6x/5x-1[8:1],{12},5b/8b,
,,,,,2,{4}4,7/8p4[8:1],
8/2q6[8:1],2,{6}8,1/7V51b[4:1],{12},7b/1b-7b[8:1],
,,,,,,{4}5/6,7-3[8:1],
8-4[8:1],1-5[8:1],2-6[8:1],3-7[8:1],
4-8[8:1],5-1[8:1],6-2[8:1],7-3[8:1],
8,8,{6}1/2,1-6[8:1]/2-5[8:1],{12},1b/2b,
,,,,,,{4}3/7,3/7<4[4:1],
4V68[4:1],8p3[4:1],{6}2,2-8[8:1]*-6[8:1],{12},2b,
,,,,,7,{4}1,6/2>5[8:1],
2/8p4[8:1],8/1q5[8:1],1/7,8,
3qq4[8:3]/7qq8[8:3],,,2b/6b,
,1/8,{6}1/2,3/4,5/6,
7/8,6/5,3/4,1<6[8:1]/2v5[8:1],{12},{4}1/2,
{6}3,3/4,{12},6,{4}5,{12}7/8,,1/6,
,,3/7,3-8[8:1]/7-4[8:1],,,{2}3b/7b,
2h[4:1]/5<3>5[4:13],3h[4:1],
4h[4:1],5h[4:1],
4h[4:1],3h[4:1],
2h[4:1],{4}2,3/5,
{2}7h[4:1]/4>6<4[4:13],6h[4:1],
5h[4:1],4h[4:1],
5h[4:1],6h[4:1],
7h[4:1],{4}8x,8x>3[6:1],
{2}4h[4:1]/8xqq3[4:5],4h[4:1],
5h[4:1],5h[4:1],
5h[4:1]/2qq7[4:5],4h[4:1],
4h[4:1],5h[4:1],
7h[4:1]/5qq8[4:5],7h[4:1],
6h[4:1],6h[4:1],
{12}E2,E3,E4,E5,,,E8,E7,E6,E5,,,{2}4h[4:1]/5h[4:1],
3/6,
{4}3/4<6[8:1],2,3/4p8[8:1],2,
3/4<7[8:1],2,3/4q8[8:1],2,
3/4,2,5/6,7,
7b/5b,2b/4b,1b/8b,7,
6/5>3[8:1],7,6/5q1[8:1],7,
6/5>2[8:1],7,6/5p1[8:1],8,
7/8,5/6,3/4,1/2,
1b/2b,7b/8b,1b/8b,3,
2/4<7[8:1],1,2/4p8[8:1],1,
2/4<7[8:1],1,2/4q8[8:1],1,
1/7,1/7,2/8,2/8,
5b/7b,2b/4b,1b/8b,7,
8/7-5[8:1],1,1/2-4[8:1],8,
8/7<4[8:1],1,1/2>5[8:1],8,
{1}4bqq1[4:5]/6bpp1[4:5],
,2bpp5[4:5]/8bqq5[4:5],
,E3/B2/E7/B6/Cfh[1:1],
{2},,8<5[2:1],
5>2[2:1],
2<7[2:1],7<4[2:1],
{1}4V26-4b[4:5],
{2},,4h[4:1],
3h[4:1]/5h[4:1],
6xh[4:1]/4xh[4:1],2bh[4:1]/8bh[4:1],
{4}1/2,7/8,{6}1/8,1-5[8:1]/8-4[8:1],{24},,1b/8b,Cf,
{4},,{4}1/8,7/2>5[8:1],
2/6v1[8:1],6/3-8[8:1],{6}3/7,7>2[8:1]*<4[8:1],{12},7b,
,,,,,3,{4}5,2-8[8:1]/6-8[8:1],
2-4[8:1]/6-4[8:1],2-6[8:1]/6-1[8:1],2/6,4x/8x,
6pp5[8:3]/2pp1[8:3],,,7b/3b,
,7/8,{6}7/8,2/4,5/6,
1/8,3/4,5/7,2-7[8:1]/6-3[8:1],{12},{4}2b/6b,
,1/5,{6}7/8,2/3,5/6,
7/8,1/3,5/6,7<4[8:1]/4>1[8:1],{12},{4}4b/7b,
,2/4,{6}5h[12:1]/6h[12:1],2h[12:1]/8h[12:1],3h[12:1]/4h[12:1],
1h[12:1]/7h[12:1],2h[12:1]/4h[12:1],6h[12:1]/7h[12:1],2-6[8:1]/1-5[8:1],{12},{4}2b/1b,
{6}4/7,4/7,{12},3/4,{4}5/2V48[4:1],{12}6,,6,
,,1/7,1-5[8:1]/7-3[8:1],,,{2}1b/7b,
{6}2/6,2/6,{12},7/8,{4}6/1V37[4:1],{12}5,,5,
,,8/4,8v2b[8:1]/4v6b[8:1],{24},,,,4bx/8bx,Cf,,,,,,,,,,,
{1},
{1},
{1},
E
Re:MASTER
最終更新:2026年04月08日 22:38