アットウィキロゴ

Luminescence

アーティスト 米虾Fomiki & 初云CLoudie

BPM BASIC ADVANCED EXPERT MASTER Re:MASTER
184 4 7+ 11 13+ -

EXPERT MASTER Re:MASTER
譜面制作者 サファ太 Jack -

BASIC


ADVANCED


EXPERT


MASTER

(184)
{4},{1},,{4},,,{8}A2,
,,B4,,,{4}B8,
{8},A6,,,,,,,{1}C,
{4},,,,E6,
,,E2,
,,E8,{8}C,E4,
,,,,,,,,E5,
,,B2,,,{4}B7,
{8},,,,,,,E1,
,,,B3,,,{4}B6,
,A2,{8}A7,B5,B1,A3,
,,,,,,E7,E3,
{16},,,,,,,,A6,B6,C,B2,{4}A2,
,,4/5,4h[8:1]/5h[8:1],
{8}3x/6x,5,4,7,6,5,8,7,
3,4,5,2,3,4,1,2,
6,5,4,7,6,5,8,7,
3h[8:1],5,4h[8:1],6,5h[8:3],6,7,8,
3,4,5,2,3,4,1,2,
6,5,4,7,6,5,8,7,
3,4,5,2,3,4,1,8,
{4}2h[8:1]/7h[8:1],{8}2/7,4>1[8:1]/5<8[8:1],,5/4,,,2x/6,
5,4,{16}6,5,{8}6,4,7,5,
3,4,5,{16}3,4,{8}3,5,2,4,
6,5,4,{16}6,5,{8}7,3,{16}3,4,{8}2,
6,5,4,3h[4:1]/7h[4:1],,,{4}6x/4x,
{8}5/1,2,3,4,5/3h[4:1],6,7,2/8<5[8:1],
,1>4[8:1],,6,7,8,1,2,
3/4,4/3,5/6,6/5,7/8,8/7,2/1,1/2,
{16}3,8,3,8,4,7,4,7,5-1[8:1],6,5,6,{4}5x,
7/3b,{8}8/4,6/2b,,3/7,{4}1bpp1[3:1]/5pp5[3:1],
{8},,,,8/4,1,2,3,
{4}4/7b-4[8:1],{8}1,3b-8[8:1],,5,{4}7bs3[8:3],
,,1h[4:1],{8}5,4,
{4}2/6b,{8}5/1,3/7b,,6/2,{4}8b<5[8:1]/4>1[8:1],
,8/4h[4:1],5h[4:1],{8}7,6,
{4}5/2b<7[8:1],{8}4,6b>3[8:1],,8,{4}2bqq7[4:3],
{8},,,,,,,,6,
6,5,6,3,4,5,6,
4,6,5,6,{4}5-3[8:1],7-5[8:1],
{8}2,2,4,3,6,5,4,3,
5,3,4,2,{4}4-6[8:1],2-4[8:1],
{8}7,7,5,5,8,8,4,{16}6,5,
{8}7,7,1,1,4,4,3,3,
{16}2,4,2,4,3,5,3,5,4,6,4,6,5,7,5,7,
{2}6b-2[8:1],{8}E8,E4,E6,E2,
3bh[4:1]/7bh[4:1],{16},,,,2,1,2,1,{8}2,8,5/7-4[8:1],
,7/8,,2,{16}3h[16:3],,,4,{8}3,2/4,
1h[4:1],8,7,6h[4:1],5,4,3,4/2h[4:1],
,1,{16}1,3,,3,{8}5,{16}5,7,,7,{8}1,
2h[4:1]/8h[4:1],{16},,,,7,3,6,4,{8}5<8[8:1],2,2,
{16},,2,1,{8}2,3/8,7/4,6,5/2,3,
{4}4x/7x<4[8:1],{16}1,2,{8}3x-8[8:1],{16},,7,6,{4}5xpp4[8:3],
{2}1bh[8:3],{8}2/3,4,6/5,{16}7,7,
{4}1xh[4:1],{8}8,{16}6,5,6,5,{8}7,1,2-5[8:1]/4-8[8:1],
,4/2,{16},,7,,6h[16:3],,,5,{8}6,5/7,
8h[4:1],1,2,3/5,4,{16}6,5,{8}6,4/7h[4:1],
,1>4[8:1],8<5[8:1],1-5b[8:1],8,1,,,{4}3/7x-4[8:1],
{8}1,{16}3,3,{4}5x-8[8:1],{8}4,{16}2,2,
{4}1x<6[8:1],{8}3,{16}4,4,{8}5x,3x/6x,2x/7x,1x/8x,
{4}7b/2b>5[8:1],{8}2/5,7b-3[8:1],,7/3,{4}1bw5[8:1],
{2}Cf,{12}7/3,6,5,4-8[8:9],3,2,
{1},{4},,,{16},,{8}5h[8:9],
,,,,,,,,,,,,,,,,{1}4h[1:1],
{8},,,,,,,5h[8:9],
,,,,,,,,{2}E4,
E5,
E6,{4}4,5,
{2}3/4<6[8:1],{8}3,4,5,6,
{4}4,{8}4,5,,5,4,6,
{2}5>3[8:1],{8}6,5,4,3,
{4}5,5h[4:1],{16},,,,4,6,4,6,
{2}3-5[8:1],{8}6,5,4,3,
{4}5,5h[4:1],{8},3,4,5,
4,5,4/6,6/4,,3,5,4,
{1}3/5pp4[2:1],
{8}3/4,3/4,,,,,,,6/5,
6/5,{24},,,,,,{12}3,4,2,6,5,7h[8:5],
{16}D2,D3,D4,D5,D6,D7,D8,D1,{4}2x>5[8:1],2/1,
6V47[4:1],{8}4,2-6[8:1],,1/2,,8h[8:5],
{16}D6,D5,D4,D3,D2,D1,D8,D7,{4}5x-1[8:1],{8}5/6h[4:3],{16},,D1,D2,
D3,D4,D5,D6,D7,D8,{2}1xw5[8:1],
{8}3b/7b,3b/7b,,,2h[4:1],4,5,6h[4:3],
{16}D6,D5,D4,D3,D2,D1,D8,D7,{8}D6,4x,3x,2xh[4:3],
{16}D4,D5,D6,D7,D8,D1,D2,D3,{8}D4,5x,6x,7x,
{4}8/3V52[4:1],{8}5,7-3[8:1],,8/7,,,{4}1<6[4:1],
6>3[4:1],{8}2,1,8,7,
{4}6h[4:1],5h[4:1],{12}7,5,6,4,5,3,
{4}4<7[4:1],7>2[4:1],{8}2,3,4,5,
{4}6>3[4:1],3>8[4:1],8<5[4:1],5>2[4:1],
{2}1h[4:1],{8}1,2/4,3/5,6/4,
2,3/5,4/6,5/7,2,3/4,4/5,5/6,
{4}7,{8}8/7,1/6,,1/2,1/2,8/3,
,4/5,{4}7/2-5[8:1],2/6v1[8:1],6/4>5[2:3],
{1}8b,
{8},,,,,,3x/7x,{16}6x/4x,,Cf,
,,,,,1x/2x,3x/8x,{4}7x/4xh[4:1],A6f/B6/E6,
{16}2,1,2,1,3,8,3,8,4,7,4,7,5,6,5,6,
{4}E4f/A3/B3,A8f/E8/B8,{8}6/5,{16}3,4,{8}3,7h[2:1],
E2f/A1/B1,,,5,5/6,4/7,3/8,1/2,
{4}3b/8b-4[8:1],{16}1,2,{8}3bx>8[8:1],{16},,7,6,{4}5bx-1[8:1],
{16}2,3,{8}4bx<6[8:1],{16},,1,8,{4}7bx-4[8:1]*-3[8:1],7b,
B2f/A2/E2/B1/A1,6/5-1[8:1],E8f/B8/A8/D8,3/4-8[8:1],
B1/E2/A1f,{8}6,5/7,4,3,8,{16}2,1,
{4}2>5[8:1],{8}7,7h[8:5],{4}E3f/B2/B3,E6/A5/B5f,
{16}8,1,2,3,8,7,6,5,1,2,3,4,1,8,7,6,
{8}4,4,4/B7f/E8/A7,4,3,3,3/E6f/A5/D6,3,
7,7,7/D4/A4/E4f,7,8,8,8/A2/E2/B2f,8,
{4}5b/7b-3[8:1],{8}4,2b-5[8:1],,2b/6b-1[8:1],,6b/4b,
,,8/7,1>4[8:1]/5<8[8:1],,5b/1b,,1/2,
{16}A7/B7/Cf/B3/A3,{4},,,{16},,{32}B1,C,
{1}B5,
E

Re:MASTER


名前:
コメント:

タグ:

+ タグ編集
  • タグ:
最終更新:2026年03月29日 15:33