BASIC
ADVANCED
EXPERT
MASTER
(170)
{1},
{2},Ch[2:1],
{1}8bx<1[8:13],
{8},,,,,,,4x,
{4}4xh[4:1],{8}2,2h[4:1],,1h[4:1],,3bx-7[8:1],
,2x,{4}2bx-6[8:1],{2}1bxw5[8:1],
{8}3,5,1x/7,6h[4:1],,5,8/2x,3h[4:1],
,4,1/7x,6,5/4-8[8:1],3,{4}2x,
{8}7,1,2/8x,3h[4:1],,4,1/7x,6h[4:1],
,5,7/4x,3,2/1-5[8:1],8,7x,{16}6,6,
{8}4,7,2/8x,3h[4:1],,4,1/7x,6h[4:1],
,5,4/7x,6,5/4,3,2x/7x,{16}1,8,
1,8,1,8,1,8,{32}1x,2x,3x,4x,5x,6x,7x,8x,1x,2x,3x,4x,{4}5xq3[2:1]/1xq7[2:1],
,,,5b/1bp5[8:1],
8xh[4:1],{8}4x,{16}7x,7x,{8}5x,6bx,2h[8:1],4,
3-5[8:1],7h[8:1],3,{16}6,6,{8}5x,7x,{4}4/8xq4[8:1],
1xh[4:1],{8}5,{16}2,4,3,,{8}6-4b[8:1],5,6x,
3,2h[8:1],4,{16}1,2,3,4,5,6,{4}7/8p4[8:1],
3xh[4:1],{8}2,{16}3,3,{8}1bx,2,6h[8:1],8,
7,3h[8:1],1,{16}2,2,{8}1,3,{4}8/4q8[8:1],
5xh[4:1],{8}1,{16}6,8,7,,{8}1/8,{16}2,1,{8}3-5[8:1],
,3-8[8:1],7,3<5-1[4:1],6-8[8:1],3,{4}6,
3b/7b<2[8:3],{8}2,2q7[4:1],,8,8,8h[4:1],
{16},,7,1,6,2,5,3,6,4,7,3,{4}8h[4:1],
3>6[8:3],{8}6,6V82[4:1],,4,4,4h[4:1],
{16},,2,2,4,5,6,7,4,3,2,1,{4}8/4,
6b/2b>7[8:3],{8}7,7p2[4:1],,1,1,1h[4:1],
{16},,2,8,3,7,4,6,3,5,2,6,{4}1h[4:1],
6h[4:1],{8}8,8h[4:1],,1,1,8/2h[4:1],
{24},,,1-4[8:1],8,7,{8}6-3[8:1],1,6,2,{4}1b/5b,
{8}2h[8:1],3h[8:1],2h[8:1],4h[4:1],,1,4,5/8,
,7h[8:1],6h[8:1],8h[4:1],,5,{4}1/4,
{8}2h[8:1],3h[8:1],1h[8:1],4h[8:1],2h[8:1],4,1,8/5,
,6h[8:1],7h[8:1],8h[4:1],,5,{4}1/4,
{8}2h[8:1],4h[8:1],1h[8:1],3h[4:1],,1h[8:1],4,5/8,
,7h[8:1],5h[8:1],6h[4:1],,8,{4}1/7,
{8}1,1>4[8:1],4,1,,8<5[8:1],5,8,
,1>4[8:1],4,1,5-7[8:1]*-2[8:1],4/6,{4}5b,
{8}8,8,1/2x,3h[4:1],,1,2/8x,7h[4:1],
,8,7/1x,2,3/4,5,1/6x,7/8h[4:1],
{24},,,E7,B6,B5,E5,,,{8}D2/E2,E6/D6,E4/D4,E8/D8,E1/D1,
,E5,E4/E6,E7/E3,{4}E2/E8,6/3,
{8}5/4h[8:9],5,{4}5,E4,{8}3,3,
,5,{4}5h[4:3],E6,6,
{8}4,4,{4}5/3,{8}2/6,6/2,1/5,5/1,
{4}8>2[8:1]/4<6[8:1],8-3[8:1]/4-7[8:1],8-4[8:1]/4-8[8:1],4/8,
{2}3b/7bh[4:5],{16}A1,B1,C,B5,{4}A5,
3,3h[1:1],{16}A8,B8,C,B4,{4}A4,
6,6h[1:1],{16}A4,B4,C,B8,{4}A8,
2,2h[1:1],{16}A5,B5,C,B1,{4}A1,
8,8h[1:1],{16}A2,B2,C,B6,{4}A6,
4,4h[1:1],{16}A7,B7,C,B3,{4}A3,
2,5,{8}3/6,6/3,,C/B8/A8/D7/B7/A6/A7f,
,,{4}D2/A1/B1/B2/A2f,D5f/E5/B5/B4,6b/3b-1v8-6-8v1-3b[4:13],
5,5,4,4,
3,3,3,3,
4,4,5,5,
6,6,5/6,4/7,
{8}3,3,4,4,2,2,2/5,{16}3,4,
{8}3,6,6,5,5,7,7,{16}3,8,
3,8,3,8,3,8,{32}E5,E6,E7,E8,E1,E2,E3,E4,D5,D6,D7,D8,D1,D2,D3,D4,{8}D5/Cfh[8:7],
,,,,{2}4-8[8:1],
{8}2-6[8:1],1-7<5-3[4:1],2,1,,8-3[8:1]*-4[8:1],1,8,
,2/5h[8:1],{24}2,1,8,7,6,5,{8}4/8,8b,{4}2b/6b,
{8}2-6[8:1],4<1[6:1],2,4,,5,5,5/1-6[8:1],
,1/3b-8[8:1],,3/7bh[4:1],,1b,{4}2b/6,
{8}7-4[8:1],4-7[8:1],7V51[4:1],1,,2,2,3h[4:1]/7>2[8:1],
,7,{24}3,4,5,6,7,8,{8}1-4[8:1]*-6[8:1],2bx/8bx,{4}1b,
{8}5/7,8,1/2,3-1[8:1],8-4[8:1],3,8,2-6[8:1],
,2bw6[8:1],,2b,,4bx/8bx,{4}A2/B2/B6/A6/Cf,
{8}7-3[8:1],8>2-4<6[4:1],7,8,,1-5[8:1]*-6[8:1],8,1,
,7/4h[8:1],{24}7,8,1,2,3,4,{8}5/1,1b,{4}3b/7b,
{8}7-3b[8:1],5V31-7[4:1],7,5,,4,4,4/8>3[8:1],
,8/6b-1[8:1],,6/2bh[4:1],,8b,{4}7b/3,
{8}2-5[8:1],5-2[8:1],2>4-8[16:3],8,,7,7,6h[4:1]/2>5[8:1],
,2,{24}6,7,8,1,2,3,{8}4-1[8:1]*-7[8:1],3bx/5bx,{4}4b,
{8}8,1/7,3,2/4,5/6,7/8,2/1,3b/8bh[4:1],
{16},,1,1,{8}1,{16}7,7,{4}7w3b[8:1],A7f,
5b/1bh[4:1],{8}6h[8:1],{16}2,4,{8}3h[8:1],{16}6,5,{8}7h[8:1],{16}4,5,
{8}2h[8:1],{16}4,3,{8}8h[8:1],{16}5,6,{8}2h[8:1],{16}5,3,{8}4-1[8:1],5,
{4}4b/7b-5[8:1],{8}7-2[8:1],{16}1,1,{8}7-4[8:1],{16}3,3,{8}7-1[8:1],{16}1,1,
{8}7,{16}3,3,{8}8h[8:1],{16}3,2,1,8,7,6,{4}4-2[8:1]/5-7[8:1],
5b/4b,{8}2x-8[8:1],8-6[8:1],6v4[8:1],4>1[8:1],5x,5bx,
{16},,7,7,{8}8,{16}2,2,{8}1,{16}8,8,{4}1v4[8:1]/7v4[8:1],
1b/7b,{8}3/5,{16}2,4,{8}1,2/8,{16}6,5,{8}7h[4:1],
,8,8/7,8/1,1/2,3/4,5/6,7,
6b/8b,{16}3,4,{8}2,3b/1b,{16}6,5,{8}6,2b/7b,{32}8b/1b,7/2,6/3,5/4,
E
Re:MASTER
最終更新:2026年04月05日 13:57