BASIC
ADVANCED
EXPERT
MASTER
(215)
{8},,,46,3,3,45,6,7-4[8:1]/8-3[8:1],,7x/8x,,
{1},
{4},,2-5[8:1]/1-6[8:1],2x/1x,,,,
{8},68,68,,24,,8-4[8:1]/1-5[8:1],,1b/8b,,6,6,8,8,1,1,3,3,5,5,4/6h[4:1],,5,,
{8}47,,25,
{4}5/2-6[8:1],2/7-3[8:1],7/1-5[8:1],1/8-4[8:1],
{8}38,3,,25,25,,
{32}1bx,2,3,4,5,6,7,8,1x,2,3,4,5,6,7,8,1bx,2,3,4,5,6,7,8,1x,2,3,4,5,6,7,8,1bx,2,3,4,5,6,7,8,1x,2,3,4,5,6,7,8,1bx,2,3,4,5,6,7,8,1x,2,3,4,5,6,7,8,1bx,2,3,4,5,6,7,8,1x,2,3,4,5,6,7,8,1bx,2,3,4,5,6,7,8,1x,2,3,4,5,6,7,8,1bx,2,3,4,5,6,7,8,1x,2,3,4,5,6,7,8,1bx,2,3,4,5,6,7,8,
{16}1x,,,,
{4}3-8[8:1],4,6-1[8:1],5,3-8[8:1],4,6,56,7-3[8:1],7x/2-6[8:1],2x/8-4[8:1],8x/1-5[8:1],
{8}1x/6,6,4,4,5,5,36,,
{4}2/7-5[8:1],2,2/4-8[8:1],2,3/7-5[8:1],3,3/4-8[8:1],3,2/7-5[8:1],2,24,15,6>3[8:1],
{8}2,,1,1,28,,
{4}6h[4:1],5,4/7h[4:1],
{8}5,5,6,6,1,1-5[8:1],,8,8<4[4:1],,
{4}4>8[4:1],8<4[4:1],4>8[4:1],8,4,2-7[8:1]/6-3[8:1],,1x/5x,
{8}2,2,4,,15,,6,6,5,5,7h[4:1],,1,1,
{4}8,2-4[8:1],8-6[8:1],1-5[8:1],8,
{8}7,7,1,1,
{4}24,57,8-5[8:1],8/1-4[8:1],8h[4:1]/1,
{8}5,5,6,,47,47,,
{8}1,1>5[4:1],,
{4}5<1[4:1],1>5[4:1],5-7-1-3-5[2:1],1,,,8,1>7[4:5],C,,,
{1},
{4}8<2[4:5],,,
{1},
{4}1x/2x,,
{8}2h[4:1]/5h[4:1],,,3h[4:1]/6h[4:1],,,7h[4:1]/4h[4:1],,,58,58,,7h[4:1],,5,,7h[4:1]/4h[4:1],,,6h[4:1]/3h[4:1],,,2h[4:1]/5h[4:1],,,14,4/1-5[8:1],,
{16}5b,,,7b,,,2b/8b,,
{4},5hx[4:1]/7hx[4:1],,4hx[4:1]/2hx[4:1],,4hx[4:1]/6hx[4:1],,5hx[4:1]/3hx[4:1],,1hx[4:1]/7hx[4:1],,8hx[4:1]/2hx[4:1],,5/6V84[4:1],,,
{8}3hx[4:1],4,5,6h[4:1],4,3,2h[4:1],5,6,7h[4:1],5,4,3h[4:1],4,5,,5x/6x,4x/7x,,4x/3x,5x/2x,,4b/5b,3b/6b,,,
{8}1x-4b[8:1]/8x-5b[8:1],,8x/1v4>5[4:3],,,B7/E7f/B6,
{4},,,
{8}7,7,1/8-4[8:1],,3,3,,2-7[8:1]/6-3[8:1],,26,,15,15,,
{4}6-1[8:1],46,3-8[8:1],53,7h[4:1],
{8}5,5,,46,46,,7,8,1,
{4}2,46,18,5/3<1b[4:1],1b,,
{8},4,,15,5/1h[4:1],,8,8-4[8:1],,8b/3b-7>2-5[2:1],,6hb[2:1],,,,,,57,,3,,8/1-5[8:1],,6,6,,3-5[8:1]/7-5[8:1],,37,,48,48,,3-8[8:1],,35,,6-1[8:1],,64,,2h[4:1],,4,4,,35,35,,26,26,,
{4}1>4[8:1],1/8<5[8:1],8/1>4[8:1],1/8<5[8:1],8/1>4[8:1],1/8<5[8:1],18,
{8}26,26,,
{4}8-4[8:1]/7-5[8:1],78,1-5[8:1]/2-4[8:1],21,6-3[8:1],6/2-7[8:1],2/5-1[8:1],5/3-8[8:1],3/7-3[8:1],7/1-5[8:1],1/4-8[8:1],4,2x/6x,
{8}1,28,,5,6/4q5<3b[4:3],,
{1},
{8},
{4}5b,8hb[4:11],,,,,,,,,,,,,7-4[8:1]/1-5[8:1],1b/7b,
{8}36,7,8-4[8:1],4,3>1[8:1],,6,6h[4:1],,4,2,1-5[8:1],7-3[8:1],1,7,,2<7[8:1],,4,5>2[8:1],,7,8x,8hx[4:1],,5,5,4,35,26,2b/6b,,4h[8:1]/7h[8:1],,5h[8:1]/8h[8:1],,47,47,,
{4}24,12,
{8}78,78,,46,,5h[8:1]/2h[8:1],,4h[8:1]/1h[8:1],,52,52,,
{4}75,87,
{8}21,21,,53,,
{4}7V51[8:1],47,2V48[8:1],52,6V84[8:1],16,3V15[8:1],83,7h[4:1],
{8}8,16,,12,3/8>6[2:1],,Cf,,
{2},
{8}18,,6>3[8:1],,2,2h[4:1],,1,1,,6,6,4-1[8:1],,7-4[8:1],,2,,3<6[8:1],,7,7h[4:1],,8,8,,3,3,5-7[8:1],,1-3[8:1],,8,,7-3[8:1],,2,2h[4:1],,4,4,,6,6,1-5[8:1],,7-3[8:1],,3,,
2<7[8:1],,6,6h[4:1],,5,5,,3,3h[4:1],,4-8[8:1],,2,2,,
{16}5x/8x,,,3,,,2,,4x/1x,,,6,,,7,,5x/8x,,,3,,,2,,4x/1x,,,6,,,7,,
{8}5x/8x-4[8:1],,4,3-7[8:1],,5-8[8:1],,8,1>8[2:1],,Cf,,,,,27,,34,1-5[8:1],,16,7h[4:1],,4,,
65,8-4[8:1],,83,2>1[2:1],,Cf,,,
{4},,1x/8x,
{16}46,,,37,,,28,,17,,,26,,,35,,
{1},,A1/A2/A3/A6/A7/A8/B1/B2/B3/B4/B5/B6/B7/B8/C/D1/D2/D3/D7/D8/E1/E2/E3/E4/E6/E7/E8,
{4},,,
{8},18,,36,36,,,
{16}4,5,3,,
{8}3,35,35,6,6,46,7/3<6[8:1],,8h[4:1],,1,1,,3,4,5,6-1[8:1],,56,,3-8[8:1],,3/4<3[2:1],,Cf,,,,,,,8xs4b[4:1]/1xz5b[4:1],,,,,,2-5b[8:1]/7-4b[8:1],,2b/7b,,
{32}1,2,3,4,5,6,7,8,1bx/5bx,,,,
{8},,,6,,1/8-4[8:1],,3,3,,6-4[8:1]/2-4[8:1],,62,,51,51,,6-1[8:1],,64,,3-8[8:1],,35,,6h[4:1],,5,5,,71,71,,62,62,,
{4}5<8b[8:1],5/4>1b[8:1],4/5<8b[8:1],5/4>1b[8:1],4/5<8b[8:1],5/4>1b[8:1],54,
{8}62,62,,
{4}1-5[8:1]/2-4[8:1],21,8-4[8:1]/7-5[8:1],78,3-6[8:1],3/7-2[8:1],7/4-8[8:1],4/6-1[8:1],6/2-6[8:1],2/8-4[8:1],8/5-1[8:1],5,7x/3x,
{8}1,28,,5,64,,7,7V15[4:1],,5,5,,3,,
{4}6b-3[8:1],6b/2b-7[8:1],2b/5b-1[8:1],5b/3b-8[8:1],3b/7b-3[8:1],7b/1b-5[8:1],1b/4b-8[8:1],4b,2x/6x,
{8}8,71,,4,3/5p4>6b[4:3],,,,,,,,,4b,,,1hb[4:3]/8hb[2:1],,,,,,7,28,28,,34,3-7[8:1]/4-8[8:1],,3b/4b,,,,
E
Re:MASTER
最終更新:2026年04月05日 01:13