アットウィキロゴ

モンダイナイトリッパー!

アーティスト 名取さな

BPM BASIC ADVANCED EXPERT MASTER Re:MASTER
180 4 7 10+ 13+ -

EXPERT MASTER Re:MASTER
譜面制作者 翠楼屋 アマリリスせんせえ with ぴちネコせんせえ -

BASIC


ADVANCED


EXPERT

(180)
{1},
{4}45,{8}3,3,{4}4,
{4}25,{8}6,6,{4}5,47,
{4}47,{8}6,6,{4}5,
{4}45,{8}3,3,{4}4,25,
{4}1,{8}7,7,{4}8,
{4}18,{8}2,2,{4}1,
{4}3,45,36,
{1}B3/B4/B5/B6/Ch[1:1],
{4},,,

{1}1-5[8:3],
{1}6-3[8:3],
{1}2>5[8:3],
{2}B5/B6/E6,B1/B2/E2,
{1}8-4[8:3],
{1}2-6[8:3],
{2}8h[2:1],{4}2,{8}37,3bx/7x,
{8},4bx/5x,,2h[4:1]/6bhx[8:3],{2},

{4}3x/5x,46,{8}6,6,{4}5,
{4}3,24,{8}3,3,{4}4,
{4}6h[4:1],5,3h[4:1],{8}5x,5,
{8},46,,37,,8,{4}8,
{4}1h[4:1],2h[4:1],3h[4:1],4,
{4}7h[4:1],6h[4:1],5,{8}4,4,
{8},35,,4x/6x,,4x/6x,,2bx/8bhx[8:5],
{2},C,

{4}2h[2:3],1,1,1,
{4}3,3,1,1,
{4}1x/2x,3,45,6,
{4}57,57,{2}4b/8b,
{2}2h[4:1]/4h[4:1],{4}24,5,
{4}6h[4:1],5h[4:1],{16}7x,,,4x/6x,,,3x/5xp4[8:7],,
{1},
{2},2x/6x,

{4}34,18,46,{8}2,2h[4:1],
{8},1,,38,,56,{4}56,
{8}3,3,4,2,6,6,5,7h[4:1],
{8},8,8,8,,1x/7x,{4},
{4}56,18,35,{8}7,7h[4:1],
{8},8,,16,,34,{4}34,
{8}2,2,8,8,1,1,7,7,
{8},28,,46,,3b/7b,{4},

{4}24,18,56,{8}7,7h[4:1],
{8},8,,1x/6x,,34,{4}34,
{8}6,6,5,7,3,3,4,2,
{8}8,8,1,8,,2x/7x,{4},
{4}3bx/8bx,{8},2,{4}2h[4:1],{8}4,34,
{8},45,,56,,7,{4}7h[4:1],
{4}8h[4:1],1h[4:1],{2}3z7[8:5],
{2},{8},8x,{4}8x,
{2}1h[4:1]/7h[4:1],{16}1x,,,2x/8x,,,3bxqq8[8:9]/7bxqq4[8:9],,

{1},
{2},{4},1x,
{4}1/7h[4:1],5h[4:1],4h[4:1],3h[4:1],
{2}8-4[4:1],3>8[4:1],
{4}7h[4:1],5h[4:1],4h[4:1],2,
{4}6h[4:1],8h[4:1],1,28,
{8}7,7,5,5,6,6,{4}4w8[2:1]/6,
{1},

{4}2h[4:3],{8}1,1,{4}1,
{4}3,4,35,
{4}6h[4:3],{8}5,5,{4}5,
{4}7,8,17,
{1}B2/B6/Cf,
{1},
{4},

(160)
{2}3h[2:1],4h[2:1],
{2}5h[2:1],6h[2:1],
{2}3h[2:1],4h[2:1],
{2}5h[2:1],6,
{2}5h[4:1]/6h[4:1],4h[4:1]/5h[4:1],
{2}3h[4:1]/4h[4:1],3h[4:1]/4h[4:1],
{2}4h[4:1]/5h[4:1],5h[4:1]/6h[4:1],
{1}4V28q5[4:7]/7,
{1},

(180)
{1}8bx,

{4}46,28,34,{8}7,7h[4:1],
{8},8,,16,,34,{4}34,
{8}6,6,5,7,3,3,4,2h[4:1],
{8},1,,3x/8x,,3x/8x,{4},
{4}34,18,46,{8}2,2h[4:1],
{8},1,,38,,56,{4}56,
{8}7,7,1,1,8,8,2,2,
{8},17,,35,,2b/6b,{4},

{4}34,17,56,{8}2,2h[4:1],
{8},1,,38,,56,{4}56,
{8}7,7,8,6,2,2,1,3,
{8}5,5,4,6,,3b/7b,{4},
{4}12,78,56,{8}2,2bx/8bx,
{8},1bx/7bx,,3bx/5bx,,6,{4}6h[4:1],
{4}5h[4:1],4h[4:1],{2}3>6b[8:5],
{2},{4},4x/5x,
{4}3h[4:1],2h[4:1],1,{8}28,28,
{8},34,,56,,8,{4}8,
{2}1h[4:1]/7h[4:1],{16}1x,,,2x/8x,,,3x>8[8:3]/7x<4[8:3],,
{1},

{4}45,{8}3,3,{4}4,
{4}25,{8}6,6,{4}5,47,
{4}56,{8}7,7,{4}8,
{4}16,{8}2,2,{4}1,38,
{4}12,{8}3,3,{4}24,
{4}45,{8}6,6,{4}57,
{4}46,{8}3,3,{4}24,
{4}35,{8}78,78,{4}78,
{4}46,{8}12,12,{4}12,
{8}8,8,1,1,6,6,
{8}4,4,5,5,{4}3b>6qq4b[4:15],
{1}E5f,
E

MASTER

(180)
{16}A4,A5,A3,A6,A2,A7,A1,A8,
{8}2bx,3,4,8x,7,6,
{8}2x,3,4,8x,7,6,{4}B1/B2,
{8}7bx,6,5,1x,2,3,
{8}7x,6,5,1x,2,3,{24}E8,E7,E6,{8}E5,
{8}1bx,2,3,7x,6,5,
{8}2x,3,4,8x,7,6,
{8}3x,4,5,1x,8,7,
{2}2h[2:1]/6h[1:1],{8},,,{32}D2,A1,D1,A8,
{4}D8,,,

{2}7^4[8:3],B3/B4,
{2}2^5[8:3],B5/B6,
{2}6^3[8:3],B5/B4,
{1}1V75[8:3]*V35[8:3],
{8}6,5,7,7,3,4,2,2,
{8}6,6h[4:1],,5h[4:1],,4h[4:1],,3^1[8:1],
{8},34,,6^8[8:1],,56,,3b/E6,
{8},1b/E5,,6b/E4,{2},

{8}34,4h[8:1]/3h[8:1],,4h[8:1]/2h[8:1],,4h[8:1]/1h[8:1],,4h[8:1]/8h[8:1],
{8},4h[8:1]/1h[8:1],,4h[8:1]/2h[8:1],,4,3,4-2[8:1]/2,
{8},46,5,4-6[8:1],,24,3,4qq1[8:3]*pp7[8:3],
{2},{4},2x/6x,
{4}3/5b,{8}4,{32}B2,E2,{8}A1,{16},{8}7xs3[4:1],,3xs7[4:1],
{4},{8},1,,3,2,1b/5b,
{8},B2/B6/C,,3b/7b,,B4/B8/C,,2bh[8:5]/6b<4[8:3],
{1},

{16}3,4,3,,6,5,6,,3,4,3,,6,5,6,,
{16}4,5,3,6,4,5,3,6,4,5,3,6,{4}1b,
{8}1h[8:1],5h[8:1],2h[8:1],4h[8:1],3h[8:1],8h[8:1],4h[8:1],7h[8:1],
{8}5h[8:1],6h[8:1],1h[8:1],5h,{16}3bh,6bh,3bh,6bh,{4}4bqq3[16:3]b,
{8}5xpp6[16:3]b,{16},{32}A3,D4,{8}4xqq3[16:3]b,{16},{32}A6,D6,{8}5xpp6[16:3]b,{16},{32}A3,D4,{8}4xqq3[16:3]b,{16},{32}A6,D6,
{8}5x,{16},{32}A3,D4,{4}4x,
{16}3/5,,,4/7,,,2>8[8:3]/6b,,
{4},8>4[4:1],4<8[4:1],8,
{32}D1,D2,D3,D4,D5,D6,D7,D8,E1,E2,E3,E4,E5,E6,E7,E8,{2}Cf,

{8}2>5[8:1]/7,1,7<4[8:1],8,2>5[8:1],1,7,8x-5[8:1],,8x/3x[8:1],,1x/4x[8:1],,
{8}34,34,,{4}7V51^6-3[2:1],4,{8}3,3,,
{4}2,1-4[8:1]/5-8[8:1],1x/5x,4x/8x,
{8},7<4[8:1]/3,8,2>5[8:1],1,7<4[8:1],8,2,1x-4[8:1],,1x/6x,,8x/5×,,
{8}8,17,26,35,
{16}6,5,6,,3,4,3,,
{8}8,7,26,,{4}1>4[8:1]/5<8[8:1],15,4bx/8bx,{8},
{8}3-6[8:1],3,2-7[8:1],2,3-6[8:1],3,1,1-5[8:1],,
{4}13,26,
{8}56,56,,
{4}2-6V48[2:1],8,
{8}7,7,,6,
{8}1,28,37,4>1[8:1]/6p8[8:1],
{2},
{8}1x/8x,A7/E8/E7/A2/E3/E2,,
{8}45,3,2>5[8:1],8,7,,6<1[8:1],5,4,,
{8}2,3,4,56,4,3,2,18,7,6,5h[4:1]/4>6[8:3],,
{2},
{8}8,7,6,45,6,7,8,12,
{16},5<4b[16:9]/4>5b[16:9],
{4},,,,E7/B7/B6/Cf/B2/B3/E3,
{4}27,18,
{8}3,4,5,,
{8}56,
{16}7,8,7,,2,1,2,,7,1,7,1,7,1,
{4}7h[4:1],
{16}2x,1,2,1,3,8,3,8,3,,,,
{8}35,
{16}6,4,6,,2,4,2h[16:3],,,5x,,,6,8,
{8}6,
{16}2,8,2,8,2,8,
{32}2bx,3x,4x,5x,6x,7x,8x,1x,
{4}2x,
{16}6,4,6,3,5,3,6,4,6,3,5,3,7qq3[2:1],4,7,,
{1},
{4}Ch[4:12],B8,E7,
{4}E6,E5,D4,
{4}D3,D2,D1,
{4}D8,D7,D6,
{1}D5,,
{4},
(160)
{4}3h[4:1]/4h[4:1],,3h[4:1]/4h[4:1],,
{4}4h[4:1]/5h[4:1],,4h[4:1]/5h[4:1],,
{4}5h[4:1]/6h[4:1],,5/6,6q3[4:2],Ch[4:2],,,,
{4}2h[4:1]/3,,3h[4:1]/E5,,
{4}4h[4:1]/5,,5h[4:1]/E5,,
{4}7h[4:1]/6,,6h[4:1]/E5,,
{4}5p4[4:3]/4,,,4^1[4:1],1<5[4:1],,,,
(180)
{16}E8,B7,B6,E6,E2,B2,B3,E4,
{16}D7,D8,D1,D2,D3,D4,D5,,
{8}3x>8[8:1]/6x,4,6<1[8:1],5,3>8[8:1],4,6,5x-8[8:1],,5x/1x,,3x/8x,,
{8}56,56,,{4}3-6-2-7-1[2:1],4,{8}5,5,,
{4}6,4qq5[4:1]b/6pp5[4:1]b,4bx/6bx,,{8},
{8}6<1[8:1]/3,5,3>8[8:1],4,6<1[8:1],5,3,4x-1[8:1],,4x/7x[8:1],,5x/8x[8:1],,
{8}5,46,37,28,
{16}1,8,1,,7,8,7,,
{8}2,3,4-8[8:1]/5-1[8:1],,
{4}4x/5x,1bx-4[8:1]b/8bx-5[8:1]b,
{32}1bx/8bx,B2/B7,Cf,B3/B6,B4/B5,E5,
{16},,,
{8}1-5[8:1],1,8-6[8:1],8,2-4[8:1],2,1,1x-5[8:1],,
{4}1x/3x,2x/8x,
{8}56,56,,{4}2-6V48[2:1],8,{8}7,7,,6,
{8}1,28,37,4>1[8:1]/6p8[8:1],
{2},
{8}2-5[8:1],2,1-6[8:1],1,2,2^7[4:1],,
{4}7x^2[4:1],6,5,
{8}2,3,4,56,7,8,1,2,3>6[8:3]*p6[8:3],3,,,,,,,
{8}7,6,5,42,3,57,6,{16}3b/5,,,1b/2,,,6b/8>5[8:1],,{8},,,,,
{8}8,7,6,5,46,37,28,{16}1,,,4x/5x,,,
{8}2bhx[8:7]/7bhx[8:7],,,,,,,,,
{8}2bx/4bx,3,4,7x/5x,6,5,
{8}2x/4x,3,4,7x/5x,6,5,B1/B2,,
{8}7bx/5bx,6,5,2x/4x,3,4,
{8}7x/5x,6,5,2x/4x,3,4,
{24}E1,E8,E7,{8}E6,
{8}2bx/4bx,3,4,7x/5x,6,5,
{8}1x/4x,2,3,4x/8x,7,6,
{8}1x/5x,3,4,8x/5x,6,5,
{8}3hx[4:1]/4,4,4,6hx[4:1]/5,5,5,
{8}2hx[4:1]/3,3,3,7hx[4:1]/6,6,6,
{16}3b,1,3,1,3,1,2b,8,2,8,2,8,
{16}1b,7,1,7,1,7,8b,6,8,6,8,6,
{4}7xb>3z7[4:14]*<3s7[4:14],
E

Re:MASTER


名前:
コメント:

タグ:

+ タグ編集
  • タグ:
最終更新:2026年02月08日 22:39