BASIC
ADVANCED
EXPERT
MASTER
(210){2}4h[4:1]/6h[4:1],5h[4:1]/7h[4:1],8h[4:3]/6h[4:3],,8>4[4:3]*<4[4:3],,,,3h[4:1]/5h[4:1],1h[4:1]/3h[4:1],5h[4:1]/7h[4:1],1h[4:1]/7h[4:1],5pp5[2:1]*qq5[2:1],,4/6,3/7,4h[4:1]/2h[4:1],4h[4:1]/1h[4:1],
3h[4:3]/8h[4:3],,1>5[2:1],6,8>3[2:1]b*<5[2:1]b,,2h[2:1]/6,{4}3<6[4:1]b,{24}D2,A1,D1,A8,D8,A7,{1}D7f,{12}3x,5x,4x,6x>8[1:1],,,{4}1b,,{1},{8}1h[4:3],,,,,,5,6,7h[8:3],,,5h[8:3],,,4,,{4}3h[4:3],,,1,1h[4:3],,,7,7,,5,,{16}2b/6b,,,,3,5,3,5,3,5,3,5,3,5,3,5,
{4}4,4,4,{8}4,5h[8:5],3,,3,,3,,3,4h[8:5],2,,2,,2,,2,3h[8:5],1,,1,,1,,2/4,,5,,5,,5,,5,4h[8:7],6,,6,,6,,6,5,4x/6x,4x/6x,,,{16}3,5,3,5,2,4,2,4,{4}1bq5[8:1],7b,,4/6,{8}1/7,1/7,6,5,2/4,2/4,3,,5/7,5/7,4,3,2/8,2/8,1,,2/4,2/4,5,6,5/7,5/7,8,,1/7,1/7,2,3,4/6,4/6,5,,2/4,2/4,5,5,4-2-5[4:1]/6-8-5[4:1],4/6,,,{4},4x/6x,5xw1[4:1]b,,,{8}3-7[8:1],3,5,,6-2[8:1],6,8,,1>4[4:1]*<6[4:1],1,{2},
{4}3b/7b,,,4/6,4h[1:2]/6>2-8p1-7[4:5],,,,,,,,6,,3/7,,3/7,,,8/2,8h[1:2]/2<6-4p5-3[4:5],,,,,,,,2,,3/7,,{1}6>3[4:3],2q6[4:3],7>2[4:3],{4}3h[2:1],,5,4<3[4:3],Cf,,,,,,,6p3[1:1]b,3b,,,,,{16},,4,5,4,,,,3pp6[1:1],,,,{4}A7f,A8f,A1f,A2f,{2}8b,B4/B5/E5f,
{4}1x-3[8:1]/7x-5[8:1],1bx/7bx,4x-1[8:1]*-7[8:1],4bx,8xV24[4:1]*V64[4:1],8bx,,2-6[8:1],2/8,2-8[8:1]/5,2/7,2-4[8:1]/6,1/2,2/8,A3/B3/E3/A6/B6f/E7,,4x<8[4:1],8>4[4:1],4V68[4:1],8V24[4:1],4<8[4:1],8>4[4:1],4,,4pp4[4:1]*qq4[4:1],,,1-5[8:1],1b/7-4[8:1],7b/2-5[8:1],2b/6b,,7<3[4:1],3<7[4:1],1,1V75-3[2:1],6-2[4:1],,,1,3bx/5bx,8,4bx/6bx,1-5[8:1],7>2[8:1],3<6[8:1],8-4[8:1],1h[4:5],5b,,,,{16}7,1,7,1,{4}7,2b/6b,,
{8}3,3,4,2,8,1,6,6,5,7,2,8,1-3[8:1]*-7[8:1],,,,6,6,5,7,1,8,3,3,4,2,7,1,5-3[8:1]*-7[8:1],,,,2,2,1,3,5,4,7,7,8,6,3,5,4-2[8:1]*-6[8:1],,,,7,7,8,6,4,5,2,2,8,3,{16}B7,B6,B5,B4,B3,B2,B1,B8,E8,E7,E6,E5,{1}E4/Cf,,7h[2:3],{4},,5,4,{1}3h[2:3],{4},,4,5,{1}6h[1:1],{4}4,3/7,3/7,,8b,,,{1}5h[8:1]/7-4[8:1],4h[8:1]/2-5[8:1],5h[8:1]/7-4[8:1],{4}2<7-3<6[4:5]/4h[1:2],,,,,,,,5-8[8:1]b,5b,,,,,{16},,1,7h[16:9],{4}5,,5b,1b/3b,4b,6b/8b,5b,1bV35[4:1]b/3b,5b,,
{4}2-5[8:1]/8-5[8:1],2bx/8bx,6-1[8:1]/4-1[8:1],6bx/4bx,2>5-1[4:1]/8<5-1[4:1],2bx/8bx,,7-3[8:1],1/7,4/7-5[8:1],7/8,3/7-1[8:1],2/7,4/7-2[8:1],3b-6[8:1]/7b,3b/8b,5x>1[4:1]/7x,1<5[4:1],5V31[4:1],1V75[4:1],5>1[4:1],1,5,4qq5[2:1]b/6pp5[2:1]b,,,,8-3[8:1],1-6[8:1]/8b,5-8[8:1]/1b,3b/5b,,2>6[4:1],6>2[4:1],8,8-4[4:1],4w8[4:1],,,8h[2:1],A6/D7f/E7,1h[2:1],A3/D3f/E3,8-4[8:1],2<7[8:1],6>3[8:1],1-5[8:1],7,8bh[2:3],,,,4,4>5[2:1],,,B6/B5/E6f,,1,,{8}3/7,3/7,2/8<5[8:1]b,,1>4[8:1]/8,,1b/7b,,
{8}8,8h[4:1],,2,2h[4:1],,4,4h[4:1],,6,6-2[8:1],,8-4[8:1],,1,,2/5,,3/8,3/8,,1/6,1h[4:3]/6-3[8:1],,{2},{16}2x,3x,4x,5x,2x,3x,4x,5x,{4}1x,4-2[8:1],4-6[8:1],4-1[8:1],4-7[8:1],4qq1[2:1],4/8x,,8,{12}2,1,3,1,,,7,8,6,{4}8,6-1[8:1],4-7[8:1],8-3[8:1],2-5[8:1],6-1[8:1],4,3,{16}2,1,2,1,3,8,3,8,4,7,4,7,5>6[1:1],6,5,6,{4}5b,,,,{48}A8f,,,,,,,,,,,B1f,,,,,,,,,,E7f,,,,,,,,,,B3f,,,,,,,,,,E5f,,,,,,,{1},{2}2h[1:1],5,{1}4q5<3[4:11],,,{2},1xs5[4:1],E
Re:MASTER
- MASTER譜面を追加しました。修正等ありましたらよろしくお願いします。 -- Sugar (2026-07-09 21:04:13)
最終更新:2026年07月09日 21:04