アットウィキロゴ

夢現妄想世界

アーティスト 夢限大みゅーたいぷ

BPM BASIC ADVANCED EXPERT MASTER Re:MASTER
195 3 7+ 10+ 13 -

EXPERT MASTER Re:MASTER
譜面制作者 鳩ホルダー はっぴー -

BASIC

(195)
{1},4x,4x,4xh[1:1],,5,5,4h[1:1]/5h[1:1],,{2}4,4,3,,2,2,1/8,,8,8,7,,6x,6x,4x/5x,,

{2}5,5,6,,7,7,8,,1,1,2,,3,3,4/5,,3,3,3/4,,2,2,1/8,,7,7,7/8,,6,6,5x/4x,,{1}4-1[4:3],,8-5[4:3],,4-8[4:3],,7-3[4:3],,B1,B8,B2,B7,B3,B6,B4,C,

{2}1bx,1x,2,2,3,3,4/5,,5,5,6,6,7,7,8/1,,8x,8,7,7,6,6,5/4,5/4,4,4,3,3,2,2,1b/8b,,

{1}1h[1:1]/2h[1:1],,3h[1:1]/4h[1:1],,5h[1:1]/6h[1:1],,7h[1:1]/8h[1:1],,{2}7,7,7/8,,6,6,6/5,,3,3,3/4,,2,2,2/1,,8,8,8b/1b,,{1}B8,B1,B7,B2,B6,B3,Cf,,

{1}1x-5[4:3],,8x-4[4:3],,2x-6[4:3],,7x-3[4:3],,{4}1bx,1,1,,2,,2,,3,,3,,3x/4x,,,,5,5,5,,6,,6,,7,,7,,7x/8x,,,,1,,1,,1/2,,1/2,,8,,8,,8b/1b,,,,

{2}8h[2:1],,7,7,6h[2:1],,5,5/4,4h[2:1],,3,3,2h[2:1],,1x/8x,,B8/B1,,B7/B2/Cfh[4:5]
E

ADVANCED

(195)
{4},,,,7,7,7,,6,6,6,,5,5,5,,4/3,,4/3,,2,2,2,,3,3,3,,4,4,4,,5/6,,5/6,,7,7,7/8,,6,6,6/5,,4,4,4/3,,2/1,2/1,2/1,,2,2,2/1,,3,3,3/4,,5,5,5/6,,7/8,7/8,7/8,,

{2}7-4[2:1],,3-6[2:1],,7-4[2:1],,3,3/4,2-5[2:1],,6-1[2:1],,2-6[2:1],,7,7/8,7h[2:1],8h[2:1],1h[2:1],2,2h[2:1],1h[2:1],8h[2:1],7,6h[2:1],5h[2:1],4h[2:1],3,3h[2:1],4h[2:1],5h[2:1],6,{4}7,7,7,,6,6,6,,5,5,5,,4/3,,4/3,,2,2,2,,3,3,3,,4,4,4,,5/6,,5/6,,B7,B6,B5,,B2,B3,B4,,B7,B6,B5,B4,B3,B2,C,,B1,B2,B4/B3,,B8,B7,B6/B5,,B3,B4,B5,B6,C,,,,

{4}7x,7,8,8,1,1,1/2,,3,3,2,2,1,1,8/7,,7,7,6,6,5,5,4/3,,2,2,3,3,4,4,5/6,,6x,6,7/8,7/8,1,1,1/2,,3,3,2/1,2/1,8,8,8/7,,7,7,6/5,6/5,4,4,4/3,,2,2,3/4,3/4,5,5,5bx/6bx,,

{1}7p4[4:5],,2q5[4:5],,6p3[4:5],,2qq5[4:5],,{4}6,6,6,6,7,7,7,7,8,8,8,8,1/2,,1/2,,3,3,3,3,2,2,2,2,1,1,1,1,8/7,,8/7,,1h[1:1]/8h[1:1],,,,,,,,2h[2:1],,1,,2,2,2/1,,3h[2:1],,4,,3,3,3/4,,6h[2:1],,5,,6,6,6/5,,7h[2:1],,8,,7x/8x,,,,

{1}7-4[2:1],3-8[2:1],7-3[2:1],1-5[2:1],{4}7,7,7/8,,6,6,6/5,,3,3,3/4,,2,2,2/1,,2x,2,2,2/1,3,3,3,3/4,5,5,5,5/6,7,7,7/8,,7,7,7,7/8,6,6,6,6/5,4,4,4,4/3,2,2,2/1,,2,2,3,3,4,4,5,5,6,6,7,7,8/1,,,,

{4}8,7,6,5,4,3,2bx/1bx,,1,2,3,4,5,6,7b/8b,,8,7,6,5,4,3,2,1,8,7,6,5,5/4,5/4,5/4,,3,3,3/4,,5,5,4h[4:3]/5h[4:3]
E

EXPERT


MASTER


Re:MASTER


名前:
コメント:

タグ:

+ タグ編集
  • タグ:
最終更新:2026年08月17日 01:26