アットウィキロゴ

Night Fly

アーティスト 発熱巫女~ず

BPM EASY BASIC ADVANCED EXPERT MASTER Re:MASTER
127 3 3 8+ 11+ 13 13

EXPERT MASTER Re:MASTER
譜面制作者 mai-Star ニャイン Moon Strix

EASY


BASIC


ADVANCED


EXPERT


MASTER

(127){4}
4-8[2:1],,1h[2:1],,
7-3[2:1],,2h[2:1],,
1,,8,,
2,4,6,8b,
1-5[4:1],8,6,4,
2-6[4:1],3,5,7,
8-4[4:1],1,3,5,
6^3[4:1],6,1^6[4:1],1,
{16}
1,,2,,3,,4,,5,,6,,7,,8,,
6-2[16:1],,4-8[16:1],,,,,,7-3[8:1],6,5,4,,,1b,,

8-4[16:1],,,8,1-5[16:1],,,1,7-3[16:1],,,7,,,2,,
2-6[16:1],,,2,8-4[16:1],,,8,1-5[16:1],,,1,,,6,,
6-2[16:1],,,6,4-8[16:1],,,4,5-1[16:1],,,5,,,8,,
8-4[8:1],,,,7-3[8:1],,,,6-2[8:1],,,,1b,,,,
1-5[16:1],,,1,8-4[16:1],,,8,2-6[16:1],,,2,,,7,,
7-3[16:1],,,7,1-5[16:1],,,1,8-4[16:1],,,8,,,3,,
3-7[16:1],,,3,5-1[16:1],,,5,4-8[16:1],,,4,,,7,,
6h[8:3],,,4,,,2h[8:3],,,,,,,,,,

{8}
2h[4:1],3,4h[4:1],,2h[4:1],1,8h[4:1],,
1h[4:1],2,3h[4:1],,1h[4:1],8,7h[4:1],,
8-4[4:1],8,,,2-6[4:1],2,,,
1-5[4:1],1,,,8-4[4:1],8,,,
8h[4:1],1,2h[4:1],,8h[4:1],7,6h[4:1],,
7h[4:1],8,1h[4:1],,7h[4:1],6,5h[4:1],,
6-2[4:1],6,,,4-8[4:1],4,,,
1-5[4:1],1,,,2-6[4:1],2,8b,,

{1}
1h[1:1],
2h[1:1],
{2}
3-7[2:1],8-4[2:1],
2-6[2:1],{8}5-1[2:1],,,2h[8:5],
,,,,,,3h[4:1],4,
{16}
1h[16:3],,,7h[16:9],{8},,,,,,
6,6,5,5,4,4,3,3,
{16}
4,5,6,7,3,5,7,1,26,,37,,4b/8b,,,,

8-4[16:1],,,8,2-6[16:1],,,2,1-5[16:1],,,1,8-4[16:1],,,8,
7-3[16:1],,,7,1-5[16:1],,,1,8-4[16:1],,,8,1-5[16:1],,,1,
7-3[16:1],,,7,5-1[16:1],,,5,3-7[16:1],,,3,,,6,,
7h[8:3],,,8,,,1h[4:1],,,,2h[4:1],,,,1b,,
1-5[16:1],,,1,7-3[16:1],,,7,8-4[16:1],,,8,1-5[16:1],,1b,,
2-6[16:1],,,2,8-4[16:1],,,8,1-5[16:1],,,1,8-4[16:1],,8b,,
2-6[16:1],,,2,4-8[16:1],,,4,6-2[16:1],,,6,,,2,,
3^8[16:1],,,4,,,6h[8:5],,,,,,4-8[8:1],,,,

{1},
E

Re:MASTER

(127)
{4}2/4-8[2:1],8,{16}6,6,,7,{4},7/5-1[2:1],1,{16}3,3,,2,{4},
2/4-8[2:1],8,{16}6,6,,7,{8},17,{16}8h[16:3],,,6h[16:3],,,{8}4h[8:3],,2,2,,
{4}3<8[2:1]/5,8,{16}1,1,,2,{4},6>1[2:1]/4,1,{16}8,8,,7,{4},
3<8[2:1]/5,8,{16}1,1,,2,{8},17,{16}8h[16:3],,,2h[16:3],,,{8}4h[8:3],,6,6,5,
4,5,6,7,8,1,2,3,{16}4,5,6,7,3,5,7,1,{8}26,37,4b/8b,17,

{16}68,,1,8,2^5[16:3],,5,5-1[8:1],2,7,,7,,,8,,31,,8,1,7^4[16:3],,4,4-8[8:1],7,2,,2,,,1,,
68,,1,8,2^5[16:3],,5,5-1[8:1],2,7,,7,,,8-4[8:1],,4-7[16:3],,,7-2[8:1],,,{8}2<6[8:1],,5,5,,
{16}6,,2,1,3^6[16:3],,6,6-1[8:1],3,8,,8,,,7,,12,,7,8,6^3[16:3],,3,3-8[8:1],6,1,,1,,,2,,
87,,2,1,3^6[16:3],,6,6-1[8:1],3,8,,8,,,7,,1b>7[2:1]/8h[8:1],,,8h[8:1],,,8h[8:3],,{2},

{8}6h[2:1],5,7,8,1h[2:1],2,8,7,6h[2:1],8,7,5,4,35,24,
{4}1/3<7[4:1],7>3[4:1],3<7[4:1],{1}7q6[2:1]*>6[2:1],{16},5,4,,4,,
{8}3h[2:1],4,2,1,8h[2:1],7,1,2,3h[2:1],1,2,4,5,64,75,
{4}8/6>2[4:1],2<6[4:1],6>2[4:1],{4}2p3[2:1]*<3[2:1],,,{8},8,8,8,8,

{1}7bp4[8:3]/8h[4:7],1q4[8:3],2bq5[8:3]/1h[2:3],{2}8q5[4:1],{8},68,71,
2h[8:5]/8b,,1,3,1,3,,24,35,{16}4b/6h[16:3],,,7h[16:9],,,{8}6,8,6,8,18,
4,5,6,7,8,1,2,3,{16}5,1,7,3,5,1,7,3,{8}2b^5[8:1]/6b^1[8:1],4b/8b,2b/6b,,

{16}31,,8,1,7V58[16:3],,8,8-3[8:1],7,2,,2,,,4,,68,,1,8,2V41[16:3],,1,1-6[8:1],2,7,,7,,,5,,
31,,8,1,7V58[16:3],,8,8-3[8:1],7,2,,2,,,1-5[8:1],,5-2[8:1],,,2-7[16:3],,,{8}7>3[8:1],,4,4,,
{16}6,,4,5,3V14[16:3],,4,4-8[8:1],3,6,,6,,,5,,24,,5,4,6V85[16:3],,5,5-1[8:1],6,3,,3,,,4,,
75,,4,5,3V14[16:3],,4,4-8[8:1],3,6,,6,,,5,,
8b<2[8:3]/1h[8:1],,,1h[8:1],,,{8}1h[4:1],,,{16}4-1[4:3],6,2,8,{1}4b,,,,E

  • Re:MASTER譜面を追加しました。修正等ありましたらよろしくお願いします。 -- けもがみ (2026-03-29 12:16:38)
名前:
コメント:

タグ:

+ タグ編集
  • タグ:
最終更新:2026年10月04日 18:16