アットウィキロゴ

Blank Paper (Prod. TEMPLIME)

アーティスト 日高零奈・東雲和音・茅野ふたば「電音部」

BPM BASIC ADVANCED EXPERT MASTER Re:MASTER
133 2 6 8+ 12+ -

EXPERT MASTER Re:MASTER
譜面制作者 はっぴー 翠楼屋 -

BASIC


ADVANCED


EXPERT


MASTER

(133)
{8},,,,,
{8}3>1s5[8:7]/6<8z4[8:7],,,{1},{8}6,5<8[16:2],4,3h[4:1],,1x,1,2,3,4,2/5,2,3-5[16:2],5,6,,6,5<8[16:2],4,3h[4:1],,1x,1,2,3/5,2,1v6[16:2]*v4[16:2],2/8,,,4x/6x,,3,4>1[8:1],5,6h[4:1],,8x,7,6,3/5,6,4/7,5,6v4[8:1],5,4,,3,4-8[8:1],5,6h[4:1],,8x,7,3/6,
{24}5,,5,4,,,3/6,,,3/6,,,4,,4,5,,,
{128}2b/7b,{4},
{16}6-1[8:1],,6,,2,,,3h[16:3],,,
{8}4,3,2/5,6>3[8:1],6,
{16}1,,,2h[16:3],,,
{8}1,3/8,7,2-5[8:1],2,
{16}5,,,7h[16:3],,,
{8}5,5,4,3/5,3,4/6,6,3/5,2,1/7,2/6,3,4,
{16}5/2h[16:3],,,
{24}4,,,,4,
{48}3,,,,,
{8}2/5,1,8,8,
{16}4/7h[16:3],,,
{24}5,,,,5,
{48}6,,,,,
{8}4/7,3/6,5,5,
{16}1/6h[16:3],,,
{24}8,,,,8,
{48}7,,,,,
{8}1/6,5,3/5,2-4[8:1]/6-4[8:1],1/7,2x/6x,,8b,1b/7b,,5/3-8[8:1],3,
{16}7,,,6h[16:3],,,
{8}5,6,4/7,3<6[8:1],3,
{16}8,,,7h[16:3],,,
{8}5,5,4/6,7-3[8:1],7,
{16}1,,,2h[16:3],,,
{8}3,4,4,2/4,3,4/5,6,5/7,8,1/7,2,3/4,4/5,
{16}5/6h[16:3],,,
{24}8,,,,8,
{48}7,,,,,
{8}1,6,5/6,4/5,
{16}4/3h[16:3],,,
{24}1,,,,1,
{48}2,,,,,
{8}3/8,6,7/8,1/8,
{16}1/2h[16:3],,,
{24}4,,,,4,
{48}3,,,,,
{8}2/5,1,2/8,3-8[8:1]/7-5[8:1],,3x/7x,,1b,2b/8b,,
{16}7<4[16:3],,,4-8[8:1],,,2,,2<7-3[32:6],,,6,,,4,,4,,,2/4,,,
{8}7/5h[4:1],,6,
{24}3,,3,4,,,
{16}5/2>5-1[32:6],,,8,,,7,,7>2-6[32:6],,,3,,,5,,5,,,7/8,,,
{8}1/6h[4:1],,5,4/5,3/4,
{16}2<7-3[32:6],,,5,,,6,,6<1-5[32:6],,,2,,,4,,4bx,,,5bx/6bx,,,
{8}4bx/3bxh[4:1],,1,8,1/7,2/6,3/5,4/6,5/7,
{16}4h[8:1]/8h[8:1],,,3h[8:1]/7h[8:1],,,
{4}2>5[8:1]b/6<1[8:1]b,2/6,3b/7b,
{8}4/5,6/2h[4:1],,
{16}7<4[8:1],,,4-1[8:1],,,1,,2h[16:3],,,8,,,
{8}1-4[8:1]/7<4[8:1],,1/7,,3x/5x,2/6,2/6,
{24}3,,3,4,,,
{16}5/2v5-8[32:6],,,6,,,7,,7h[16:3],,,1,,,
{8}2v5[8:1]/8-5[8:1],,2/8,,4x/6x,3/7,8<5[8:1],1/2,8,2,3/4,3/4,7,4/6,5/3-6[8:1],,
{4}3/8<5[8:1],8/3>8[8:1],3/6-3[8:1],2/6,
{8}1,1/7h[4:1],,5,5,4/6,3/5,2/4,5b/1bh[4:1],,4,3/5<3[4:1],4/6,5/7b,,,,7,8,1,7/2<8[8:1],,
{4}B1/B2,4/6>4[8:1],B5/B6,
{8}2,2/4h[4:1],3,2h[4:1],3,4,4,5,4/6<1[4:1],,1>4[4:1],,4-8[8:1],,1,1,1/7,2/6h[4:1],3,2h[4:1],5,6,3>1[8:1]/7<5[8:1],4/8,3/7,,4/8,1/5,2>5[8:1]/6h[4:1],,2-6[8:1],,2/8,8,7,2/6,3/5,
{16}4/2h[16:3],,,1,,,
{4}8/3-8[8:1],4,1/7<5[8:1],5/7>1[8:1],3/7-3[8:1],
{8}2/7,2h[4:1],,4b-2[8:1],5,6-8[8:1],7,4-1[8:1],3,5-8[8:1],6,3-1[8:1],2,4-8[8:1],5,2,2,1/7,5,6-4[8:1],7,2-8[8:1],3,6-4[8:1],7,2-8[8:1],3,7-4[8:1],6,3-8[8:1],2,6,6,1/7,1/7,2-5[8:1],2,1,8,7-4[8:1],7,1,2,3-6[8:1],3,7-2[8:1],7,5-1[8:1],5,8<3[4:1],,2bx,,1,1,8,2/8,4/5,3/6,1/8-4[8:1],,
{4}8/1-6[8:1],1>4[8:1]/8<5[8:1],1/8,
{64}3x/6x,{4},
{8}1b/8b,,3/4,2,3/4,6,3/5,2,3/5,6,3/4,2,3bx/4bx,5,4/6,7,4/6,8,3/5,2,3/5,1,4/2-5[8:1],5,2/6,8,1/7,1/7,2b/6bh[4:1],,4,7,4/6,2,3/5,6,3/5,2,3/4,5,3/4,2,3/5,6,3b/5b,2,5/6,7,5/6,8,3/4,2,3/4,1,1-5[8:1]/8-4[8:1],2/7,1/8,,2-5[8:1]/7-4[8:1],3/6,2/7,,2b/6b-4[8:1],7,6/2-6[8:1],1,2/7,8,3/7,4/6,3/5,1/7,2/6,3/5,4/6-1[8:1],3/7,4/6-4[8:1],,6b/2b-8[8:1],3,2/6-2[8:1],5,3/6,4,3/7,2/8,1/7,3/5,2/6,1/8,2-5[8:1]/7-4[8:1],3/6,7/2-8[8:1],,2b/6-2[8:1],7,6/4-1[8:1],3,4/7-3[8:1],6,7/8-4[8:1],1,8/5-1[8:1],6,5/3-7[8:1],2,3/8<5[8:1],1,2b/8,,
{24}3,,3,4,,,2/5,,,6,,6,5,,,4/7,,,1,,1,8,,8,1,,,2/7,,,3/6,,,4,,4,5-1<7[4:1]*-1>3[4:1],,,4/6,,
E

Re:MASTER


名前:
コメント:

タグ:

+ タグ編集
  • タグ:
最終更新:2026年11月03日 11:45