アットウィキロゴ

Dive into the ZONe

アーティスト ぞん子

BPM BASIC ADVANCED EXPERT MASTER Re:MASTER
160 3 7 9+ 13 -

EXPERT MASTER Re:MASTER
譜面制作者 翠楼屋 小鳥遊さん -

BASIC


ADVANCED


EXPERT


MASTER

(160){16}3h[16:3],,,4h[16:3],,,3,,5,,5,,4,,4,,6h[16:3],,,5h[16:3],,,6,,5,,6,,5/7,,,,6h[16:3],,,5h[16:3],,,6,,4,,4,,5,,5,,3h[16:3],,,4h[16:3],,,3,,3/5,,,,4/6,,,,
2h[16:3],,,3h[16:3],,,4,,5,,4,,5,,6,,7h[16:3],,,6h[16:3],,,5,,4,,3,,2/4,,,,2h[16:3],,,3h[16:3],,,4,,5,,5,,4,,4,,3/6,,,,E6,B5,B4,E4,C,,,,2b,,,,

{8}3h[2:3]/4,,,2,2h[4:1],,,4,4h[4:1],,,2,2h[4:1],,1h[4:5],,4h[4:1],,,2,2h[4:1],,,3,3,,3/4,,2/5,,,,6h[2:3]/5,,,7,7h[4:1],,,5,5h[4:1],,,7,7h[4:1],,8h[1:1],,5h[4:1],,,7,7,,
6>3[4:1],,,,,,{4}3/4,,2>4-1-5[4:3]/5,,8,8,7,5/6,4/5,,8<6-1-5[4:3]/3,,2,2,4,4/3,5b/2b,,4-1[2:1]/6,6,5,4,5-8[2:1]/3,3,4,5,{8}7,7,5,5,4,4,2,2,{1}3V58[2:1]/6V41[2:1],{16}1x/8x,,,5x/7x,,,2x/4x,,{4}1x>4[8:1]/8x<5[8:1],,5/6,5/4,3h[4:3]/4<2[2:1],,,,4b/5b,7-3[8:1]/8-4[8:1],

{16}7x/8x,,,,,,3/5,,2,1,,7,8,,6,,4-1[8:1]/5-8[8:1],,,,4/5,,,,1/8,2/7,3b/6b,,,,4,,5/7,,6,,4/2,,3,,5/8,,6,,4/1-5[8:1],,,,1-6[8:1]*<6[8:1],,,,1-4[8:1]*>4[8:1],,,,1,,,,4b/8bw4[8:1]b,,,,8x,,,,,,3/5,,2,1,,7,8,,6,,5-1[8:1]/4-2[8:1],,,,4/5,,,,2,1,,3b/8b,,,,,1-3[8:1]/6,,,,1/5-1>4[8:3],,,,5/6,,,,7,,7,,8-6[8:1]/5,,,,8/4-8[8:1],,,,4/3,,,,1-5[8:1]/2-6[8:1],,,,
1x/2x,,,,,,4/6,,7,8,,2,1,,3,,4-1[8:1]/5-8[8:1],,,,4/5,,,,1/8,2/7,3b/6b,,,,5,,4/2,,3,,5/7,,6,,4/1,,3,,5/8-4[8:1],,,,8-3[8:1]*>3[8:1],,,,8-5[8:1]*<5[8:1],,,,8,,,,5b/1bw5[8:1]b,,,,1x,,,,,,3/5,,7,8,,2,1,,3,,4-8[8:1]/5-7[8:1],,,,5/4,,,,7,8,,1b/6b,,,,,8-6[8:1]/3,,,,8/4-8<5[8:3],,,,4/3,,,,2,,2,,1-3[8:1]/4,,,,1/5-1[8:1],,,,5/6,,,,2b/7b,,,,

{1}1hx[4:7]/8x-2-6-4[2:3],,5h[4:7]/2>2[2:3],,4h[4:7]/6-8-4-2[2:3],,{4}1h[2:3]/6-2<3[2:3],,,,,,,2b,{8}3/4h[8:5],,2,,,3,2/4,,3/4h[4:1],,2h[8:3],,,3,3/4,,6/5h[8:5],,7,,,6,7/5,,6/5h[4:1],,7h[2:1],,6,5b,5b,,4/6,,3/5,,4/6,4/6,4/6,,3/4,,5/7,4/6,3/5,,2/6,,3/4,,5/7,,2/4,2/4,2/4,,{4}6<3[2:1]/5q4[2:1],,,,1b/8b,5/6,3h[4:3]/4<2[2:1],,,,4b/5b,7-3[8:1]/8-4[8:1],{64}7x/8x,Cf,{32},{16},,,2,,1/8,,6,5,,3,4,,1,,6-1[8:1]/2-5[8:1],,,,2/6,,,,1/5,8/4,3b/7b,,,,4,,5/7,,6,,1/3,,2,,8/6,,7,,1>4[8:1]/5<8[8:1],,,,5p1[8:1]/1p5[8:1],,,,1>4[8:1]/5<8[8:1],,,,1/5,,,,8bw4[8:1]b/4b,,,,{64}8x,Cf,{32},{16},,,2,,1/8,,6,5,,3,4,,1,,2-4[8:1]/5-1[8:1],,,,2/5,,,,5/8,5/8,,2b/6b,,,,,3/4-2[8:1],,,,4/5-1>4[8:3],,,,5/6,,,,7,,7,,5-7[8:1]/6,,,,4-8[8:1]/5,,,,3/4,,,,2-6[8:1]/1-5[8:1],,,,
{64}2x/1x,Cf,{32},{16},,,7,,8/1,,3,4,,6,5,,8,,3-8[8:1]/7-4[8:1],,,,7/3,,,,8/4,1/5,6b/2b,,,,5,,2/4,,3,,8/6,,7,,1/3,,2,,8<5[8:1]/4>1[8:1],,,,4q8[8:1]/8q4[8:1],,,,8<5[8:1]/4>1[8:1],,,,8/4,,,,1bw5[8:1]b/5b,,,,{64}1x,Cf,{32},{16},,,7,,8/1,,3,4,,6,5,,8,,7-5[8:1]/4-8[8:1],,,,7/4,,,,4/1,4/1,,7b/3b,,,,,6/5-7[8:1],,,,5/4-8<5[8:3],,,,4/3,,,,2,,2,,4-2[8:1]/3,,,,5-1[8:1]/4,,,,6/5,,,,2b/7b,,,,

{32}Cf/1x,2x,3x,4x,5x,6x,7x,8x,1x,2x,3x,4x,5x,6x,7x,8x,1x,2x,3x,4x,5x,6x,7x,8x,1x,2x,3x,4x,5x,6x,7x,8x,1x,2x,3x,4x,5x,6x,7x,8x,1x,2x,3x,4x,5x,6x,7x,8x,{4}1bx/5bx,3/4,{16}1/2,,2,,3/4,,3,,4/5h[16:3],,,6h[16:3],,,7,,1/8,,2,,3/5,,4,,5-1[8:1]/6-1[8:1],,,,5b/6b,,,,7x/8x,,7,,5/6,,6,,5/4h[16:3],,,3h[16:3],,,2,,1/2,,2,,3/4,,3,,4/5h[16:3],,,6h[16:3],,,7,,8/7,,7,,6/5,,6,,5/4h[16:3],,,3h[16:3],,,2,,1/8,,7,,4/6,,5,,3/4,,,,1b/6b,,,,

{4}3h[4:1]/8h[4:7],,5-3[8:1],,3,4,5>3[8:1],,6h[4:1]/1h[4:7],,4-7[8:1],,6,5,4<7[8:1],,3h[4:1]/8h[4:7],,5-1[8:1],,2,6,4-1[8:1],,{8}1/2,3,4,5,6,7,8,1<3[8:3]/2h[8:5],,,,,,,E8/B8/B1/C/B5/B4/E4,E

Re:MASTER


  • MASTER譜面を追加しました。修正等ありましたらよろしくお願いします。 -- Sugar (2026-03-05 21:47:09)
名前:
コメント:

タグ:

+ タグ編集
  • タグ:
最終更新:2026年03月29日 15:39