BASIC
ADVANCED
EXPERT
MASTER
(154){4}3/6h[4:9],,4,5pp4[8:3],,,{8},5,5qq3[4:1],,,,,,{4}5/3h[8:9],4qq5[8:3],,{8},,,4,4,,{4}2-6[8:1]/5,2b/6b,8,4/6,3h[8:11]/7-4[8:1],7x,{8}4x,4x,5>6[8:3],,,,,,,6,7,8,1,2,3,4,{12}7,5,6,2q6[4:1],4,4,{2},
{8}7,7h[8:5],5,,5,,5,,4,3h[8:3],5,,5,,2/6,,7b,,1/8,,2>5[8:1],,5,6,6h[2:1],,4,3,3,,3/5,,2,2h[8:5],4,,4,,4,,5,6h[8:5],4,,4,,4,,3/5,,2,,4/6,,
7,8,8h[2:1],,5,,1-5[8:1],,1b/7b<3[2:1],,4,,2,,1,1,7<3[2:1],,4,,2,,1,1,7,,6/8,6/8,5,,2/4,2/4,3h[1:1],,A4f,,E6,,B2f,,A8,,7x<5[8:1],4,4,,2>4[8:1],5,5,,3/7,8,
1V75[4:1]/2,,3bh[8:1],,3bh[8:1],,2h[2:1]/8-3[8:1],,8,,7-3-5[4:1],,1/7,,2,,3/4,3/4,{16}6,5,,7,
{8}8w4[8:1]b,,,,2>5[8:1],,5,,6<1[8:1],,4h[2:5],,,,1,8,8,,{4}1,D2,B2f,B5,D6f,,6,5/7<4[8:1],3h[8:1]/7,5/7<4[8:1],3h[8:1]/7,5h[8:1]/7h[8:1],5h[8:1]/3h[8:1],5h[8:1]/7h[8:1],5-8[8:1]/3h[8:1],4,{8}8V64[4:1],8x,4xV28[4:1],,8,,4,4h[8:3],,,8b,,{16}3x-6[8:1]b,5x,1x,7x,3bx,,,,
{8}8>4[8:1],2,2h[16:7],,{16}E5/B4f,,,E6f/B6,,,{8}7x-3[8:1]/3,,1,1,2/4,2-5[8:1]/4-8[8:1],,,,4/8,{16}7,5,6,,2,4,3,,6<8[8:1],4,5,,{8}4h[4:1],,8,8<5[8:1],,2h[4:1]/8,,6,,7-3[8:1]/3,8,1/7,1,{16}2h[8:3]/4,,,3,,,3-8-5>4-6[2:1],,{8},1x,1x,2,2,1,1,,1<6[8:1]/2,,1/4,,{16}4x/6x,,,3h[16:3]/5,,,Cf,,{8},1x/8x,1x/8x,,1s5[8:3],1h[8:5],,,,,6,,2-6-3-5[8:3],2h[8:5],,,,,6,,6,7,8,1,1h[4:1],,4,,{16}6xv3p7[8:3],,,2x,,,1hx[8:3],,{2},{8}1s5[8:3],1h[8:5],,,,,7,,2-6-3-5[8:3],2h[8:5],,,,,8,,1,1,7-4[8:1],4,3h[8:7]/7,,1,,{16}6,,,E5f,,,Cf,,{4},1bx,
{8}7/8,7/8,{16}6x<4[8:3],5xq4[16:5],,,{8},,,,,3<6[8:1],6p2[8:1],7,,8,8,{16}2,1>4[8:1]*<6[8:1],2,1,,,{8},,,{24}8x,7x,6x,{8}5x,{24}2x,3x,4x,{8}5x,{24}7x,6x,5x,{4}4x,{16}3x,4,3,4,3,4,3,4,2x,5,2,5,2,5,2,5,1x,6,1,6,1,6,1,6,8x,7,8,7,8,6h[16:3],,,8,8h[16:3],,,1,1h[16:3],,,{24}3x,4x,5x,6x,,,{8}1bx/8bx,1bx/8bx-2-6-4[2:1],{2},{8},3xq6<2[4:3],3x,,{2},{4},,
{4}3hx[2:7]/4x,4,4,4,5,5,6x,7x,8bx<4[2:1],,,,,5,8x,8x,4h[8:1]/6h[8:1],5h[8:1]/7h[8:1],4h[8:1]/6h[8:1],4h[8:1]/6h[8:1],7<4[8:1]/5h[4:3],,
8x,8x,4-1[8:1]/7,4/5-8[8:1],1hx[4:1]/5,{8}8x,8x-4[8:1],,2,2,3/5,3/5,{16},6,4,,3/7,,,,{8}4/6,4>1[8:1]/6<1[8:1],3/7,,,2b/8b-4[8:1],,8b/3h[8:3],,,,{16}D3/E3/B3f/E4/D4,,,D7/E7/B6f/E6/D6,,,D1f/A1/D2/A8/D8,,{8},3x/4x,3x/4x,1x/2x,7xq4[8:1]b/8x>3[8:1]b,,,,
{16}6,,6,5,7,,3,4,2,,6<8[8:1],4,5,,{8}4h[4:1],,8,8-4[8:1],,2h[4:1]/8<5[8:1],,8,,3/7-3[8:1],8,1/7,1,{16}2/4,,,2h[16:3]/4,,,{8}3-8-5>4-6[2:1]b,,1x,1x,2,2,1,1,,1<6[8:1]/2p5[8:1],,1/2,,{16}4x/6x,,,3h[16:3]/5,,,Cf,,{8},1x/8x,1x/8x,,1b-7-3-5[8:3],1bh[8:5],,,,,8,,2b-7-3-6[8:3],2bh[8:5],,,,,8,,3,3h[8:1],1,1h[8:1],8,,3/6,,{16}6xv3p7[8:3],,,2x,,,1hx[8:3],,{2},{8}1b<7-3<5[8:3],1bh[8:5],,,,,8,,2b<7-3<6[8:3],2bh[8:5],,,,,8,,1,1,7-4[8:1],4,3h[16:11]/7,,1,,{16}6,,,E5f,,,Cf,,{4},1bx/8bx,
{8}3/7,3/7,{16}6,5,7,,{8}3-8[8:1],3,5,5,{16}1h[16:3],,,3h[16:3],,,4,,7>1[8:1],5,6,,4,,4,,8h[16:3],,,2h[16:3],,,4,,{8}6-1[8:1],6,4,4,{16}8h[16:3],,,6h[16:3],,,5,,{4}2<6[4:1],6>2[4:1],2<6[4:1],6>2[4:1],2<6[4:1],6,{8}3,3,,Cf/B4/B5,,1x/8x,1x/8x,,{16}3,4,,6,5,,4/7,,,,{8}3,2,1,8,7,6,5,{12}6,8,7,3,1,2,{8}6p5>7[4:13],,4hx[4:13]/6bx,E
Re:MASTER
- MASTER譜面を追加しました。修正等ありましたらよろしくお願いします。 -- Sugar (2026-08-14 14:17:55)
最終更新:2026年08月14日 14:17