アットウィキロゴ

Burn My Soul

アーティスト She is Legend

BPM BASIC ADVANCED EXPERT MASTER Re:MASTER
180 4 7+ 10 12+ -

EXPERT MASTER Re:MASTER
譜面制作者 はっぴー はっぴー -

BASIC

(180){1},,,,,,
{4},1x,,1x,
{4},1,,,
{4},8,,8,
{4},8,,,
{4},1,,1,
{4},2,,,
{4},3,,3,
{4},45,,,

{4},5,,5,
{4},6,,,
{4},7,,7,
{4},18,,1h[4:9]/8h[4:9],
{1},
{1},
{1},
{1}1x/8x,
{1}Ch[1:1],
{1},

{1}7h[1:1]/8h[1:1],
{1},
{1}5h[1:1]/6h[1:1],
{1},
{1}3h[1:1]/4h[1:1],
{1},
{1}1h[1:1]/2h[1:1],
{1},

{1}E2,
{1}E3,
{1}E4,
{1}E5,
{1}E6,
{1}E7,
{1}E8,
{1}C,

{1}8-4[4:3],
{1},
{1}1-5[4:3],
{1},
{1}7-3[4:3],
{1},
{1}2-6[4:3],
{1},
{2}8,8,
{1}1b/8b,

{2}8,8,
{2}7,7,
{2}6,6,
{2}45,45,
{2}4,4,
{2}3,3,
{2}2,2,
{2}1x/8x,1x/8x,

{2}1,1,
{2}2,12,
{2}3,3,
{4}4,4,4,,
{2}5,5,
{2}6,56,
{2}7,7,
{2}1x/8x,1x/8x,

{4}8,8,8,,
{2}7,78,
{4}6,6,6,,
{2}5,45,
{4}4,4,4,,
{2}3,34,
{4}2,2,2,,
{2}18,18,

{4}1,1,1,,
{2}12,12,
{4}3,3,3,,
{2}45,45,
{4}5,5,5,,
{2}56,56,
{4}7,7,7,,
{4}8x,8x,1x/8x,,

{4}7x,7,7,,
{4}6,6,6,,
{4}5,5,5,,
{4}4,4,45,,
{4}3,3,3,,
{4}2,2,2,,
{4}1,1,1,,
{4}1x/8x,1x/8x,1x/8x,,

{4}1,1,1,,
{4}12,12,12,,
{4}3,3,3,,
{4}45,45,45,,
{4}6,6,6,,
{4}56,56,56,,
{4}7,7,7,,
{4}18,18,1xh[2:5]/8xh[2:5],,

{1},
{1},
{1},
{1}B1/B8,
{1}B2/B7,
{1}B3/B6/Ch[4:3],
E

ADVANCED

(180)
{2}3,3,3,
{2}4,4,4,
{2}5,5,5,
{2}6,6,56,

{4},7,7,7,
{4},6,6,6,
{4},5,5,5,
{4},34,,34,
{4},2,2,2,
{4},3,3,3,
{4},4,4,4,
{4},56,,56,

{4},5,5,5,
{4},6,6,6,
{4},7,7,7,
{4},18,,1h[4:9]/8h[4:9],
{1},
{1},
{1},
{1},
{1}1pp4[4:5]/8qq5[4:5],
{1},

{2}3h[2:1],4h[2:1],
{2}5h[2:1],6,
{2}6h[2:1],5h[2:1],
{2}4h[2:1],3,
{2}2h[2:1],3h[2:1],
{2}4h[2:1],5,
{2}7h[2:1],6h[2:1],
{2}5h[2:1],4,

{4}3,3,34,,
{4}2,2,12,,
{4}7,7,78,,
{4}6,6,56,,
{2}7h[2:1],8,
{2}2h[2:1],1,
{4}18,18,18,,
{1}1h[2:1]/8h[2:1],

{4}B7,B6,B5,B4,
{4}B3,B2,C,,
{4}B8,B7,B5/B6,,
{4}B1,B2,B3/B4,,
{4}B6,B7,B8,B1,
{4}B2,B3,C,,
{4}B5,B6,B7/B8,,
{4}B4,B3,B1/B2,,
{1}Cfh[1:1],
{1},

{4}3,3,12,12,
{4}8,8,78,,
{4}6,6,78,78,
{4}1,1,12,,
{4}12,12,38,,
{4}34,34,25,,
{4}1,2,3,4,
{1}5b/6b,

{4}6,6,78,78,
{4}1,1,12,,
{4}3,3,12,12,
{4}8,8,78,,
{4}78,78,16,,
{4}56,56,47,,
{4}8,7,6,5,
{1}3b/4b,

{4}2,2,12,12,
{4}3,3,34,34,
{4}5,5,56,56,
{4}78,78,78,,
{4}56,56,47,,
{4}34,34,25,,
{4}4,3,2,1,
{1}7b/8b,

{4}7,7,78,78,
{4}6,6,56,56,
{4}4,4,34,34,
{4}12,12,12,,
{4}34,34,25,,
{4}56,56,47,,
{4}5,6,7,8,
{1}1b/2b,

{1}2-5[2:1],
{1}7-4[2:1],
{1}2-6[2:1],
{1}7-3[2:1],
{1}2^5[2:1],
{1}6^1[2:1],
{1}2q5[4:5],
{1},

{4}6,6,56,,
{4}7,7,78,,
{4}1,1,12,,
{1}3h[2:1]/4h[2:1],
{4}3,3,34,,
{4}2,2,12,,
{4}8,8,78,,
{1}5h[2:1]/6h[2:1],

{4}78,78,78,,
{4}56,56,56,,
{4}34,34,34,,
{4}12,12,12,,
{4}1,2,3,4,
{4}5,6,7,1b/8b,
E

EXPERT

(180)
{8}3x/5x,3x/5x,3x/5x,3x/5x,{1},
{8}4x/6x,4x/6x,4x/6x,4x/6x,{4},,,18,
{8}2x/5x,2x/5x,2x/5x,2x/5x,{4},34,45,56,
{8}4x/7x,4x/7x,4x/7x,4x/7x,{4},,,{8}34,34,

{8},2,2,1,,7,7,8,
{8},6,6,5,,3,3,4,
{8},7,7,5,,2,2,4,
{8},35,,2h[4:1]/6h[4:1],,,,56,
{8},7,7,8,,2,2,1,
{8},3,3,4,,6,6,5,
{8},2,2,4,,7,7,5,
{8},46,,3h[4:1]/7h[4:1],,,,34,

{8},2,2,4,,7,7,5,
{8},7,7,8,,2,2,1,
{8},6,6,4,,3,3,5,
{8},17,,2h[4:1]/6h[4:1],,,,1bx/8bxh[8:25],
{4},1x,2x,3x,
{4}4x,5x,6x,7x,
{4}1x,2x,3x,4x,
{4}5x,46,28,37,
{8}6,6,{4}5,{8}3,3,{4}4,
{4}25,25,46,37,

{4}2h[1:2],4,4,4,
{4}5,5,4,6,
{4}7h[1:2],5,5,5,
{4}4,4,5,3,
{4}2h[1:2],4,4,4,
{4}5,5,4,6,
{4}7h[2:3],5,5,5,
{4}4,4,5,46,

{4}3h[1:2],E2,E3,E4,
{4}E8,E7,E6,E5,
{4}6h[1:2],E8,E7,E6,
{4}E2,E3,E4,E5,
{4}3h[1:2],E2,E3,E4,
{4}E8,E7,E6,E5,
{1}6<3[2:1],
{2}1xh[4:1]/8xh[4:1],{4}2x/7x,7^4[4:1]b/8^3[4:1]b,

{2},{8},2x/5x,{4}2x/5x,
{4}4x/7x,5x-2[4:1]b/6x-1[4:1]b,{2},
{4}2,34,{8}6,6,{4}5,
{4}47,3,34,1^6[4:1]b/2^5[4:1]b,
{2},{8},4x/7x,{4}4x/7x,
{4}2x/5x,3x-7[4:1]b/4x-8[4:1]b,{2},
{4}7,56,{8}3,3,{4}4,
{4}12,78,56,5q4[8:5]/6<3[8:5],
{1},
{8}45,45,{4}45,3b/6b,7x-4[8:1]/8x-4[8:1],

{4},1x-5[8:1]/2x-5[8:1],,7x-4[8:1]/8x-4[8:1],
{4},3,12,1x-5[8:1]/2x-5[8:1],
{4},7x-4[8:1]/8x-4[8:1],,1x-5[8:1]/2x-5[8:1],
{4},6,78,7^4[4:1]/8p3[4:1],
{2},{4}12,7q4[4:1]/8^3[4:1],
{2},{4}5,6h[4:1],
{4}8h[4:1],1h[4:1],3h[4:1],5,
{2}2b/6b,{4}18,2x-5[8:1]/8x-5[8:1],

{4},1x-4[8:1]/7x-4[8:1],,2x-5[8:1]/8x-5[8:1],
{4},17,26,1x-4[8:1]/7x-4[8:1],
{4},2x-5[8:1]/8x-5[8:1],,1x-4[8:1]/7x-4[8:1],
{4},28,7,5^2[4:1]/6p1[4:1],
{2},{4}78,5q2[4:1]/6^1[4:1],
{2},{4}3,2h[4:1],
{4}4h[4:1],5h[4:1],7h[4:1],1,
{2}2b/6b,{4}45,45,

{4}57,78,24,12,
{4}57,78,45,36,
{4}24,12,57,7p2[4:1]/8,
{2},{4}7b/8b,3b/6b,
{4}57,1,24,8,
{4}47,25,6h[4:1],8h[4:1],
{4}1h[4:1],3h[4:1],6,36,
{2}B4/B5/E5f,{4}28,28,

{4}17,5,28,4,
{4}17,5,28,4,
{4}17,35,{2}2^5[4:1]/6^1[4:1],
{2},{4}18,36,
{4}2h[4:1],4,7h[4:1],5,
{4}3h[4:1],1,6h[4:1],8,
{4}2h[4:1],4h[4:1],5h[4:1],7<8[8:5]b,
{1}Cf,

{2}2^5[4:1],6^1[4:1],
{4}3h[4:1],1,6h[4:1],8,
{4}2h[4:1],4,7h[4:1],5V31[8:3],
{2},{4}8x,46,
{2}7^4[4:1],3^8[4:1],
{4}6h[4:1],8,3h[4:1],1,
{4}7h[4:1],5,2h[4:1],4,
{2}1b/5b,{4}36,45,

{4}27,1bx/8bxh[2:5],,5,
{4}5,6,6,7,
{4}7,1,1,2,
{4}3,46,46,35,
{4}26,1bxh[2:5]/7bx,,4,
{4}4,3,3,2,
{4}2,8,8,7,
{4}7,6,56,45,

{2}3^8[4:1]/4^7[4:1],{4},7x/8x,
{2}5^2[4:1]/6^1[4:1],{4},1x/2x,
{4}12,47,78,25,
{4}34,16,56,38,
{8}7,7,{4}8,56,34,
{8}2,2,{4}1,3-8[4:1]b/4-7[4:1]b,
E

MASTER

(180)
{8}26,26,26,26,,3,3,5,5,46,{4}46,
{8}37,37,37,37,,5,5,4,{4}3h[4:1],5,
{8}26,26,26,26,,3,3,5,5,46,{4}46,
{8}37,37,37,37,,46,46,3,35,3>5[2:1]/5,,4bx,

{8},5<3[2:1],,4x,,3>5[2:1],,4bx,
{8},5<3[2:1],,4x,,3>5[2:1],,4bx,
{8},5<3[2:1],,4x,,3>5[2:1],,4bx,
{8},5-1[4:1]b,,4x,,6<4[2:1],,5bx,
{8},4>6[2:1],,5x,,6<4[2:1],,5bx,
{8},4>6[2:1],,5x,,6<4[2:1],,5bx,
{8},4>6[2:1],,5x,,6<4[2:1],,5bx,
{8},4-8[4:1]b,,5x,,3>5[2:1],,4bx,

{8},5<3[2:1],,4x,,3>5[2:1],,4bx,
{8},5<3[2:1],,4x,,3>5[2:1],,4bx,
{8},5<3[2:1],,4x,,3>5[2:1],,4bx,
{8},5-1[4:1]b,,4x,,6,,1bx/8bxh[4:8],
{8},3,{4}2-6[8:1],2,{8}7,7,
{8},6,{4}7-3[8:1],7,{8}2,2,
{8},3,{4}2-5[8:1]/6,27,{8}8,8,
{8},6,57,3,24,5,{4}46,
{8}2,1,{4}8-4[8:1],48,26,
{8}7,8,{4}1-5[8:1],15,37,

{4}8<4[4:3],4,3,3,
{4}3,3,34,24,
{4}1>5[4:3],5,6,6,
{4}6,6,56,57,
{4}8z4[4:3],4,3,3,
{4}3,3,34,24,
{4}1s5[4:3],5,6,6,
{4}6,47,3,25,

{4}6h[1:1],E6,E7,E8,
{4}2h[1:1],E3,E4,E5,
{4}6pp4[4:3],E4,E3,E2,
{4}2pp8[4:3],E8,E7,E6,
{4}6h[1:1],E7,E8,E1,
{4}2h[1:1],E2,E3,E4,
{2}4h[2:1],5h[2:1],
{2}7h[2:1],{4}3,1-6[8:1]b/2-5[8:1]b,

{4}1b/2b,47,{8}3,3,{4}25,
{8}46,4/6<3[4:1]b,,Cf,{2},
{8}4,4,6,6,{2}2^4[8:1]/7^5[8:1],
{8}6,6,{4}4-1[8:1]*-7[8:1],,7x-4[8:1]b/8x-3[8:1]b,
{4}7b/8b,25,{8}6,6,{4}47,
{8}35,3V17V52[2:1]b/5,,Cf,{2},
{8}7,7,1,1,{4}28,1>5[4:1],
{4}5<1[4:1],1>5[4:1],5,1,
{8}57,6,24,3,57,6,24,3,
{8}46,46,{4}3-8[8:1]/7-4[8:1],3b/7b,{8}2x/6x,2x-6[8:1]/6x,

{8},2/5x-8[8:1],,1x-4[8:1]/5,,8x,{4}8x<3[4:1],
{4}3,1,{8}24,5,6,3/7x-3[8:1],
{8},4x-1[8:1]/7,,4/8x-5[8:1],,1x,{4}1x>6[4:1],
{4}6,7V58-4[8:3],3,2,
{4}1-5[8:1]/2-4[8:1],12,{8}36,4,57,6,
{4}7-5[8:1]/8-4[8:1],78,{8}36,5,24,1,
{4}8V64[4:1],4V28[4:1],8,4,
{2}2bxh[4:1]/6bxh[4:1],{8}35,4,6,3x/7x-3[8:1],

{8},4x-1[8:1]/7,,4/8x-5[8:1],,1x,{4}1x>6[4:1],
{4}6,8,{8}57,4,3,2x-6[8:1]/6,
{8},2/8x-5[8:1],,4x-1[8:1]/8,,5x,{4}5x<2[4:1],
{4}3,4qq4[4:1]b*pp4[4:1]b,{2},
{4}7-5[8:1]/8-4[8:1],78,{8}36,5,24,3,
{4}1-5[8:1]/2-4[8:1],12,{8}36,4,57,8,
{4}1V35[4:1]b,5V71[4:1]b,1,5w1[4:1]b,
{2},{8}2b/8b,{16}6,5,{4}7-2[8:1],

{4}3-6[8:1]/7,3/8-5[8:1],4-1[8:1]/8,4/7-2[8:1],
{4}3-6[8:1]/7,3/8-5[8:1],4-1[8:1]/8,4/7-2[8:1]b,
{4}3-6[8:1]b/7,3/8-5[8:1]b,4-1[8:1]b/8,5<4[4:1]b,
{2}4b,{16}3,4,3,4,2,5,2,5,
{4}1-4[8:1]*-6[8:1],1,{8}37,4,56,7,
{4}8^3[8:1]*^5[8:1],8,{8}26,5,34,2,
{4}1<5[8:1]/2,2,8>4[8:1],5w1[8:1]b,
{4}5b,3x/7x,{8}2b/6b,{16}3,4,{4}2-5[8:1],

{4}2/6-1[8:1],3-8[8:1]/6,3/7-4[8:1],2-5[8:1]/7,
{4}2/6-1[8:1],3-8[8:1]/6,3/7-4[8:1],2-5[8:1]b/7,
{4}2/6-1[8:1]b,3-8[8:1]b/6,3/7-4[8:1]b,1>8[4:1]b,
{2}8b,{16}6,5,6,5,7,4,7,4,
{4}8v3[8:1]*v5[8:1],8,{8}26,1,78,6,
{4}4-1[8:1]/5-8[8:1],45,{8}37,4,56,7,
{4}8^5[8:1],3^8[8:1],6^3[8:1],1p8<3[2:1],
{2},{4},2x/4x<8[4:1],

{4}3,5>1[4:1],7,4<8[4:1],
{4}2,5>1[4:1],7,8x-6[8:1],
{4}2x-4[8:1]/8,1x-5[8:1]/2,13,2>8[4:1],
{2}6h[2:1],{4}8b,5>1[4:1]/7,
{4}6,4<8[4:1],2,5>1[4:1],
{4}7,4<8[4:1],2,1x^4[4:1],
{4}4-8[4:1],8^5[4:1],5-1[4:1],1,
{2}7bh[2:1],{4}5,24,

{4}2-5[8:1]/8,{8}7,7h[4:1],,8,{4}8^3[8:1],
{4}4,{8}6,6^3[8:1],,2,{4}1-5[8:1],
{4}4-7[8:1],{8}2,2h[4:1],,8,{4}8,
{4}3-8[8:1]/7-4[8:1],37,2^5[8:1]/6^1[8:1],26,
{4}4x/7x-4[8:1],{8}2,2h[4:1],,1,{4}1^6[8:1],
{4}5,{8}3,3^6[8:1],,7,{4}8-4[8:1],
{4}5-2[8:1],{8}7,7h[4:1],,1,{4}1,
{4}3-1[8:1]/4-8[8:1],34,5-1[8:1]/6-8[8:1],56,

{4}2-5[8:1]/7,{8}6,6h[4:1],,8,{4}8^3[8:1],
{4}4,{8}6,6^3[8:1],,3,{4}2-7[8:1],
{4}5-8[8:1],{8}3,3h[4:1],,1,{4}8-4[8:1],
{4}8^3[8:1],8^5[8:1],8w4[8:1],8,
{8}2x/6x,7,{4}4/8h[4:1],5-1[8:1],56,
{8}3x/7x,2,{4}15,1-5[8:1]/2-6[8:1],1b/2b,
E

Re:MASTER


名前:
コメント:

タグ:

+ タグ編集
  • タグ:
最終更新:2026年09月15日 20:36