BASIC
ADVANCED
EXPERT
MASTER
(189)
{1},
{8}3h[4:1],,,3h[4:1],,,3,,
{8}4h[4:1],,,4h[4:1],,,4,,
{8}5h[4:1],,,5h[4:1],,,5,,
{8}6h[4:1],,,6h[4:1],,,6,,
{8}5h[4:1],,,5h[4:1],,,5,,
{8}4h[4:1],,,4h[4:1],,,4,,
{8}3h[4:1],,,3h[4:1],,,3,,
{16}E2,E3,E4,E5,E6,E7,E8,E1,D2,D3,D4,D5,D6,D7,D8,D1f,
{8}5bh[1:4],,2,2,,1,1,,
{8}E1,,3,3,,2,2,,
{8}C1,,4,4,,3,3,,
{8}E5,,6,6,,C1f,,,
{8}4h[4:15],,7,7,,8,8,,
{8}E1,,6,6,,7,7,,
{8}E5,,5,5,,6,,C1h[8:7],
{1},
{16}1b/7b,,,,8,,8x,,1,,7,,7x,,4,5,
{8}2,2x,4,4,3,1,1,1,
{8}2xh[4:1]/8xh[4:1],,,4h[4:1],,,3/5,,
{8}4h[4:1]/6x,,6x,3h[4:1]/5h[4:1],,,2/4,,
{8}1h[8:3],,,2h[8:3],,,3,,
{8}3x/4,5,4x/6,7h[4:1],,8,8,8,
{8}1xh[4:1]/7h[4:1],,,5h[4:1],,,4/6,,
{8}3h[4:1]/5xh[4:1],,,4h[4:1]/6h[4:1],,,5/7,,
{8}8h[8:3],,,6h[8:3],,,7,5h[4:1],
{8}7x,8h[8:1],4xh[8:1],6h[8:1],3h[4:1],4,4,4,
{8}2xh[4:1]/5h[4:1],,,6h[4:1],,,4/7,,
{8}5h[4:1]/8xh[4:1],,,4h[4:1]/6,,6,3/5,,
{8}1h[8:3],,,2h[8:3],,,4,4x,
{8}3/5,6,7x,4/8,,1b/5,5,5,
{8}4h[4:1]/7xh[4:1],,,5h[4:1]/6h[4:1],,,2/4,,
{8}1xh[4:1]/5h[4:1],,,3/4,,6/7,,1/2,
{16}8x,,3,4,3,,8x,,3,4,3,,2/5x,,6,,
{8}1x/7,2/6,3,4x/5x,6,3/7,2b/8b,,
{4}1h[1:1],B8,C1,B4,
{4}7h[1:1],E2,C1,E6,
{4}3h[1:1],D8,C1,D4,
{4}5h[1:1],E1,E7,E3,
{4}4h[1:1],5,E7/D7,5,
{4}6h[1:1],5,E4/D4,5,
{4}2h[1:1],4,E6/D6,4,
{4}8h[1:1],1,E3/D3,1,
{8}4h[4:1],6,6,3h[4:1],4,4,2,,
{8}5h[4:1],3,3,6h[4:1],5,5,7,,
{8}5h[4:1],6,6,3h[4:1],4,4,2,,
{8}4h[4:1],3,3,6h[4:1],5,5,7,,
{8}2/4,3,4/5,6,5/7,6,4/5,,
{8}4/5,3,1/2,3,4/5,6,7/8,,
{8}2/4,2,2/5,2,1/6,1,1/7,1,
{8}1/8,8,2/8,8,3/7,7,4/7,7,
(138){16}5xh[96:19]/6,(190),,,7,5,7,5,8,,8,,8,,3/4xh[4:1],,
{16},,2,4,2,4,2,4,1,,1,,3b/7b,,,,
{8}2h[4:1],4h[4:1],,3h[4:1],5,7,1x/2,,
{8}3h[4:1],4h[4:1],,2h[4:1],3,5,7/8x,,
{8}2h[4:1],4h[4:1],,3h[4:1],5,7,1x/2,1h[8:1]/2h[8:1],
{8},5h[8:1]/6h[8:1],,3h[8:1]/4h[8:1],,7/8,1x/6x,,
{8}7h[4:1],5h[4:1],,6h[4:1],4,2,7/8x,,
{8}6h[4:1],5h[4:1],,7h[4:1],6,4,1x/2,,
{8}7h[4:1],5h[4:1],,6h[4:1],4,2,7/8x,7h[8:1]/8h[8:1],
{8},3h[8:1]/4h[8:1],,5h[8:1]/6h[8:1],,1/2,3x/8x,,
{48}E2/6xh[8:1],,B1,,B8,,E8,,,,,,E4/7xh[8:1],,B4,,B5,,E6,,,,,,E3/6xh[8:1],,,C1,,,E7,,,,,,8b,,,,,,,,,,,,
{48}E2/6xh[8:1],,B1,,B8,,E8,,,,,,E4/7xh[8:1],,B4,,B5,,E6,,,,,,E3/6xh[8:1],,,C1,,,E7,,,,,,8b,,,,,,,,,,,,
{24}E2/6h[8:1],B1,B8,E8,,,E4/7h[8:1],B4,B5,E6,,,E2/6h[8:1],B1,B8,E8,,,E4/7h[8:1],B4,B5,E6,,,
{48}E2/6h[8:1],,B1,,B8,,E8,,,,,,E4/7h[8:1],,B4,,B5,,E6,,,,,,E3/6h[8:1],,,C1,,,E7,,,,,,1b/8b,,,,,,,,,,,,
{48}E8/3xh[8:1],,B8,,B1,,E2,,,,,,E6/2xh[8:1],,B5,,B4,,E4,,,,,,E7/3xh[8:1],,,C1,,,E3,,,,,,1b,,,,,,,,,,,,
{48}E8/3xh[8:1],,B8,,B1,,E2,,,,,,E6/2xh[8:1],,B5,,B4,,E4,,,,,,E7/3xh[8:1],,,C1,,,E3,,,,,,1b,,,,,,,,,,,,
{24}E8/3h[8:1],B8,B1,E2,,,E6/2h[8:1],B5,B4,E4,,,E8/3h[8:1],B8,B1,E2,,,E6/2h[8:1],B5,B4,E4,,,
{48}E8/3h[8:1],,B8,,B1,,E2,,,,,,E6/2h[8:1],,B5,,B4,,E4,,,,,,E7/3h[8:1],,,C1,,,E3,,,,,,1b/8b,,,,,,,,,,,,
{16}E5,,,(110.4),(190),,,,,,,,,,,,
{8}4,,,,5,,,4,
{4}4,5,4,,
{8}5,,,,4,,,5,
{4}5,4,5,5/6,
{8}3/4h[4:7],,,,5,,,3,
{4}3,5,2,,
{8}5h[4:5]/6,,,,4,,,6,
{4}6,4,6h[8:1]/7h[8:1],2h[8:1]/3h[8:1],
{8}1b/8,,8,8,E2,8,,,
{8}3/7,,7,7,E3,7,,,
{8}5/6,,6,6,E4,6,,,
{8}4/5,,5,5,E5,5,,,
(202){16}4/6,(190),,,4,,3,,E6,,3,,4,,,,
{8}3/5,,3,2,E7,2,3,,
{8}2/6,,2,1,E8,1,2,,
{8}1/8,,1,8,E1,8,1,,
{16}2h[4:1]/7h[4:1],,,,,4/5,,,,,,,,,,,
{4}4x,5x,1b/2b,7b/8b,
{32}C1f/1bx,2,3,4,5,6,7,8,1x,2,3,4,5,6,7,8,1x,2,3,4,5,6,7,8,1x,2,3,4,5,6,7,8,
{32}C1f/1bx,2,3,4,5,6,7,8,1x,2,3,4,5,6,7,8,1x,2,3,4,5,6,7,8,1x,2,3,4,5,6,7,8,
{32}C1f/1bx,2,3,4,5,6,7,8,1x,2,3,4,5,6,7,8,1x,2,3,4,5,6,7,8,1x,2,3,4,5,6,7,8,
{32}C1f/1bx,2,3,4,5,6,7,8,1x,2,3,4,5,6,7,8,1x,2,3,4,5,6,7,8,1x,2,3,4,5,6,7,8,
{8}C1f/1b,,2/8,,5/6,5/6,3/7,,
{8}8,8,1/7,2,3/4,3/4,2/6,,
{8}7/8,6,4,3/5,2,8,3/7,,
{8}2/6,1,7,4/6,5,3,1/2,,
{48}5/8,,,,,,5h[4:1]/8h[8:1],,,,,,,D8,A7,D7f,A6,D6,,,,,,,1/4,,,,,,1h[8:1]/4h[4:1],,,,,,,D2,A2,D3f,A3,D4,,,,,,,
{48}5/8,,,,,,5h[4:1]/8h[8:1],,,,,,,D8,A7,D7f,A6,D6,,,,,,,1/4,,,,,,1h[8:1]/4h[4:1],,,,,,,D2,A2,D3f,A3,D4,,,,,,,
{8}5/7,6,4,3/5,2,5,7/8,1,
{8}2/4,3,5,4/6,7,4,1/2,8,
(216){16}5/7,(190),6,,1,,2/8,,3,,5,,7/8,,1,,
{8}2/4,3,8,1/7,6,4,1/2,,
{16}3bh[8:1]/7bh[8:1],,,,2,8,2,8,3,7,3,7,4,6,4,6,
{16}3,5,2,4,1,8,1,8,5,7,4,6,3,5,2,4,
(161){16}1x,(190)6,5,6,1x,6,5,6,1x,6,5,6,1x,6,5,6,
{16}3,4,3,4,1x,1x,8,,4/5,,4/5,,2b/7b,,,,
(139.6){16}1h[384:77]/8,(190),,,4,,3/4,,,,6,,5/7,,,,
{8}1/2h[4:1],,5,4/5,,7,6/8,,
{8}4/5h[4:1],,8,7/8,,2,1/3,,
{8}5/6h[4:1],,1,1/8,,3,2/4,,
{8}7h[4:1]/8,,4,3/5,,5/6,4/7,,
{8}1/2h[4:1],,5,4/6,,3/4,2/5,,
{8}4/7h[8:1],3,2/5h[8:1],1,2h[8:1]/8,7,4h[8:1]/6,5,
{8}3/4,2,1/8,7,5/6,4,3/6,2/7,
{96}1xh[24:1]/8xh[24:1],,,,,,,,1xh[24:1]/8xh[24:1],,,,,,,,1xh[24:1]/8xh[24:1],,,,,,,,2/7,,,,,,,,,,,,2/7,,,,,,,,,,,,,,,,,,,,,,,,D2/E5f,,,A2,,,D3,,,A3,,,D4,,,,,,,,,,,,C1f/D8,,,A7,,,D7,,,A6,,,
{1}D6,
{1}2-6[8:1],
{1},
{1},
E
Re:MASTER
最終更新:2026年04月05日 22:29