アットウィキロゴ

ULTRA POWER

アーティスト SARUKANI

BPM BASIC ADVANCED EXPERT MASTER Re:MASTER
142 3 6 11 13 -

EXPERT MASTER Re:MASTER
譜面制作者 鳩ホルダー サファ太 -

BASIC


ADVANCED


EXPERT


MASTER

(142)
{4}6h[8:13],B5/B6,,B3/B4,
{8},,B5/B6,,,4,4,,
{4}5/3h[8:9],B5/B6,,B3/B4,
{8},7,7pp8-5[2:1],,4,4,4,,
{4}2h[1:2],B3/B4,,B5/B6,
{8},,B3/B4,,,5,5,,
{4}6h[4:5],B3/B4,,B5/B6,
{8},4,4z8[8:3],,8,8,7,7,
{4}6-4[8:1],E2,3-5[8:1],E8,
{8}6-4[8:1],,E2,,3,24,24,,
{4}5/3-5[8:1],E8,6-4[8:1],E2,
{8}3<5b[8:1],,7pp8-5[2:1],,4,4,4,,
{8}3,2,4,35,6,7,5,46,
{8}3,2,4,35,6,57,57,4,
{8}6,5,34,2,3,4,56,7,
{16}1,8,1,8,1,8,1,8,2x>4[8:1]/7x<5[8:1],,,,2bx-8-4[4:1]/7bx,,,,
{16}5x,,,,6,,6,,4,5,4,5,3h[4:1],,,,
{48}8x,,7x,,6x,,2,,,2,,,4,,,4,,,3,,,3,,,5x,,,4x,,,6x,,,5x,,,7bx-1[8:1],,,,,,,,,,,,
{8}5x,,3,3,4/2h[4:1],,8b,,
{4}7/3h[4:1],1h[4:1],8h[4:1],7,
{16}6,,6x,,4,,35,,2,4,3,4,1b,,,,
{48}A8/B8,,,,,,D4,,A4,,D5,,B7,,,B1,,,B5,,,B3,,,6x,,,2x,,,6x,,,2x,,,6bxv4[4:1],,,,,,,,,,,,
{8}4x,,2,2,4/2h[4:1],,1b,,
{8}24,3,45,6,2>4[8:1]/7<5[8:1],18,27,,
{16},,34,,1b/5b,,,,7,8,7,8,6h[4:1],,,,
{48}1,,2,,3,,7,,,7,,,5,,,5,,,6,,,6,,,4,,,5,,,3,,,4,,,2b-5[8:1],,,,,,,,,,,,
{24}25,,,,,,6,,,7,,,8,4,8,4,8,4,8b,,,,,,
{4}5h[4:1]/7h[4:1],2h[4:1]/4h[4:1],5h[4:1]/6h[4:1],3h[4:1]/4h[4:1],
{16}2,,2x,,35,,46,,7,5,6,5,8b,,,,
{48}A1/B1,,,,,,D6,,A5,,D5,,B2,,,B8,,,B4,,,B6,,,3,,,7,,,3,,,7,,,1b-5[8:1],,,,,,,,,,,,
{24}15,,,,,,6,,,7,,,8,4,8,4,8,4,8b,,,,,,
{8}57,6,45,3,2>4b[8:1]/7<5b[8:1],18,27,,
{8}7b/1h[4:3],,,5,,3,3,,
{8}2b/7h[4:3],,,4,,6,6,,
{8}5b/2h[4:3],,,4,,3,3,,
{8}4b/7-4-7[4:1],,,2-5-2[4:1],,8,8,,
{8}7b/1h[4:3],,,5,,3,3-5[8:1],,
{8}3b/8h[4:3],,,5,,6,6-3[8:1],,
{8}6b/2h[4:3],,,4,,1,1-5[8:1],,
{16}1b/8bh[16:10],,,,,,,,,,5,5,8<5[8:3],,,,
{16}3,,,,3,,,,2h[16:3],,,4,3>8[8:3],,3,,
{16}6,,,,6,,,,7h[16:3],,,5,6<1[8:3],,6,,
{16}4,,,,4,,,,
3h[16:3],,,1,2>5[8:3],,2,,
{16}8,,,,8,,,,7h[16:3],,,5,6,,46,,
{16}5h[8:1]/7h[8:1],,,,5h[8:1]/7h[8:1],,,,46,,,34,,,24,,
{16}4h[8:1]/2h[8:1],,,,4h[8:1]/2h[8:1],,,,53,,,65,,,75,,
{8}6,6,56,56,45,45,34,34,
{8}2/6h[8:1],4,7/3h[8:1],5,2>4[8:1]/7<5[8:1],18,2b-8-4[1:1]/7b-1-5[1:1],,
{1},
{8},,,,3b/6b,4b/5b,2b/7b-5[8:1],,
{16}37,,3,,2,1,2,1,3-8[8:1],5,,5,3-5[8:1],,7,6,
{16}35,,7,7,5x,6,4,5,3,4,2,5,1,,46,,
{16}8,,46,,7,3,7,3,6,4,5,4,7,3,4,3,
{16}8h[8:1],,1,1,7,7,2,2,4,3,5,2,4>1b[8:1],,5,,
{16}6/4b,,,,7,8,7,8,6-1[8:1],4,,4,6-4[8:1],,2,3,
{16}46,,2,2,4x,3,5,4,6,5,7,4,8v3[8:1],,12,,
{16}8/3,,,,2,2,4,4,3,3,5,5,4,4,6,,
{8}5/7h[8:1],5,4/2h[8:1],4,2>4[8:1]/7<5[8:1],18,2b/7b,,
{48}2h[8:1]/8h[8:1],,,,,,,,,3h[8:1]/7h[8:1],,,,,,,,,46,,,,,,3b/7v4[8:1],,,,,,,,,,,,7/2-4-6-8b[4:1],,,,1,,,,1,,,,
{4}25,1w5[8:1],1b,2/7s3[4:1],
{16}3s7[4:1],,,,7,,,,1b,,,,2>8<2b[2:1],8,2,8,
{32}2,,,,,,,,1,,,,,,,,8bh[4:1],,,,,,,,1,27,36,45,,,,,
{16}3x>7>3[4:1],3x,,,6,,,5,5b-1[8:1],,,,5-7-1-7-5[4:1]*-3-1-3-5[4:1],,,,
{16},,,,,,,,3b/7b,,,,6,5,7,7,
{48}2,,,1,,,3,,,8,,,2-6[8:1],,,1,,,3,,,8,,,2b,,,,,,,,,,,,57,,,,8,,,,8,,,,
{4}5h[8:1]/7h[8:1],4h[8:1]/2h[8:1],5bh[8:1]/6bh[8:1],4h[8:1]/3h[8:1],
{16}1>4b[8:1]/8<5b[8:1],,,,1b/8b,,,,3bh[16:1],4h[16:1],3h[16:1],4h[16:1],1h[16:1],8h[16:1],2h[16:1],7h[16:1],
{16}3h[16:1],4h[16:1],2h[16:1],5h[16:1],1h[16:1],8h[16:1],2h[16:1],7h[16:1],3bh[16:1],4h[16:1],2h[16:1],5h[16:1],1z5[4:1],8,2,7,
{16}1,,,,,,,,6bh[16:1],5h[16:1],6h[16:1],5h[16:1],8h[16:1],1h[16:1],7h[16:1],2h[16:1],
{16}6h[16:1],5h[16:1],7h[16:1],4h[16:1],8h[16:1],1h[16:1],7h[16:1],2h[16:1],6bh[16:1],5h[16:1],7h[16:1],4h[16:1],8h[16:1],1h[16:1],7h[16:1],2h[16:1],
{16}8b-4b[8:1]*p4b[8:1],,,,,,,,2bh[16:1],1h[16:1],2h[16:1],1h[16:1],4h[16:1],5h[16:1],3h[16:1],6h[16:1],
{16}2h[16:1],1h[16:1],3h[16:1],8h[16:1],4h[16:1],5h[16:1],3h[16:1],6h[16:1],2bh[16:1],1h[16:1],3h[16:1],8h[16:1],2-6-3-5[4:1],1,2,1,
{16}1,,,,,,,,7bh[16:1],8h[16:1],7h[16:1],8h[16:1],5h[16:1],4h[16:1],1h[16:1],2h[16:1],
{4}8-4[8:1],8/3-8[8:1],3/6b-2[8:1],6/1w5[8:1],
{64}1>8[4:4],Cf,,,,,,,,,,,,,,,,,,,,,,,,,,,,,,,,,,,,,,,,,,,,,,,,,,,,,,,,,,,,,,,
{8},,,,,1,1,28,
{8}3/7<5[8:1],,8,1,2-4[8:1],2,1,8,
{8}7pp8-5[2:1],7,5,4,3,2,2-8[8:1],,
{8}4/2>4[8:1],,5,6,7-5[8:1],7,4,3,
{8}2-4[8:1],2,4,5,6-4[8:1],7,4/6<1[8:1],,
{8}36,,2-6[8:1],3,8-3[8:1],7,5,4h[8:5],
{4},,8>3b[8:1]*<5b[8:1],8b,
{1},,,,E


Re:MASTER


名前:
コメント:

タグ:

+ タグ編集
  • タグ:
最終更新:2026年10月11日 11:46