BASIC
ADVANCED
EXPERT
(130){1},,,
{2}4/5h[2:1],3h[1:1],{4}E4,E5,E6,,4h[2:1]/5,,6h[1:1],,E6,E5,E4,,3<6[4:1],,7x,,E7,E6,E3,E4,6,57,3,24,3v8[4:1]/5v8[4:1],,,1>6[8:3],8h[2:1],,6,,E8,E7,E6,,{12}3,,3,4,,,6,,6,5,,,3,,3,4,,,25,,E7/B6,{4}E3/B3,8<3[8:3],1h[2:1],,3,E2,E3,E4,,3h[12:5]/5h[12:5],,46,46,35,26,37,45,
2bv5[8:1]/1b-5[8:1],,8-4[8:1]/7v4[8:1],,{12}25,,3,4,,4,{4}2,16,8-4[8:1]/7-3[8:1],,2x/4x,45,57,1x-4[8:1]/8x-5[8:1],,36,8-4[8:1]/7v4[8:1],,2v5[8:1]/1-5[8:1],,{12}47,,6,5,,5,{4}7,38,1h[4:1]/2>5[8:1],,7<4[8:1]/8h[4:1],,3x,8qq8[4:1]/1pp1[4:1],,,
2b/7b,,E5,,5h[4:1],6h[4:1],7h[4:1],8h[4:1],4h[4:1],3h[4:1],2h[4:1],1,18,27,3b/6b,7h[4:1],
B5,2h[4:1],B4,7h[4:1],5h[4:1],4h[4:1],2,57,B5/B7,24,B2/B4,57,B5/B7,B2/B4,E1/E5,6h[4:1],B8,3h[4:1],B1,6h[4:1],8h[4:1],1h[4:1],3,46,B4/B6,35,B3/B5,4/6h[4:1],8h[4:1],1h[4:1],4,35,
2>7[2:1]/6,,,,E6,E7,E4,E3,7<2[2:1],,,,3,4z8[4:3],{2}C,,,
8b-4[8:1]/7b-4[8:1],2-5[8:1]/1-5[8:1],{12}46,,7,8,,2,{4}1,35,8-4[8:1]/7-3[8:1],,2x/4x,18,57,4x-1[8:1]/5x-8[8:1],,27,2-5[8:1]/1-5[8:1],,8-4[8:1]/7-4[8:1],,{12}35,,2,1,,7,{4}8,46,1h[4:1]/2>5[8:1],,7<4[8:1]/8h[4:1],,3x,8qq8[4:1]/1pp1[4:1],,,
8b-3[8:1]/7b-4[8:1],,2-5[8:1]/1-6[8:1],,{12}4/7,,7,8,,2,{4}1,3/5,7h[4:1],5h[4:1],4h[4:1],2h[4:1],7,8xp4[4:1]/1xq5[4:1],,,1-6[8:1]/2-5[8:1],,7-4[8:1]/8-3[8:1],,{12}2/5,,2,1,,7,{4}8,4/6,1h[4:1]/2q6[8:1],,7p3[8:1]/8h[4:1],,{12}2,,2,8,,8,{4}1,2/7,
3<6[4:1],,7>2[4:1],,E5,E4,E3,E2,E1,E8,E7,E6,B4/B5,B3/B6,B2/B7,,1>4[4:1],,5<8[4:1],,2h[4:1],4h[4:1],5h[4:1],7,8<5[4:1],,4>1[4:1],,7h[4:1],5h[4:1],4h[4:1],2z6[2:3],C,
E
MASTER
(130)
{4}1>4[8:1]/5<8[8:1],1-5[8:1]/5,,6/4V28[4:1],4/8V64[4:1],,E1/B8/E8,2/6,
{4}7/3-6[8:1],3/8,3/7-2[8:1],4/7,3>1[8:1]/7<5[8:1],7/3V14[4:1]*pp4[4:1],,,
{12}2/5,,4/7,4h[4:1]/7h[4:1],,,,,2/5,2h[4:1]/5h[4:1],,,,,4/7,4/7,,2/5,2/5<8[8:1],,,
{4}4/5>2[8:1],,3/8,2/6,3v8[8:1]/5v8[8:1],,4-2[8:1]/6-8[8:1],4/6,3x/7x,
{8}5/1qq3[8:3],,,,,,2/4,,
{4}6/4-7[8:1],2/4-1[8:1],6/4-7[8:1],2/4-1[8:1],4/6qq3[4:2],,,,1x/8x,
{12}4h[4:2]/5h[4:2],,,,,,,,E3/B3/E4,E7/B6/E6,,,
{4}4/1>5[8:1],1/6,4/8<4[6:1],3/8,5/1-4[8:1],1/8-5[8:1],4/8,4/5,
{12}4h[4:1]/6h[4:1],,,,,3/5,3h[4:1]/5h[4:1],,,
{4},4/6,3/5,4/6,3/5pp4[8:3]*<4[8:3],,,B2/C/B6,
{4}7/1-5[8:1],1/8-4[8:1],8/2-6[8:1],2/8,
{4}7/5>1[8:1],5/6,2/4<8[8:1],3/4,7/5>1[8:1],5/6,
{4}4/2-4[8:1],2/7-5[8:1],7/4>5[4:1],,,
{4}6/2<7[8:1],2/7pp2[8:3],,,1/5,
{4}2v3[8:1]/6v7[8:1],,2v1[8:1]/8v7[8:1],,3-7[8:1]/6-2[8:1],,
{4}8/1xpp1[4:1],1/8-5[8:1],,6/2-4[8:1],5/2-8[8:1],2/6-4[8:1],3/6,
{12}2/5,3/6,4/7,4h[12:2]/7h[12:2],,,4/7,3/6,2/5,2h[12:2]/5h[12:2],,,
{12}3/4,4/5,5/6,5h[12:2]/6h[12:2],,,5/6,4/5,3/4,3h[12:2]/4h[12:2],,,
{12}2/5,3/6,4/7,
{4}4-1[8:1]/7-4[8:1],4x/7x,1-4[8:1]/5-8[8:1],,4-1[8:1]/8-5[8:1],,
{12}1x-4[8:1]/5x-8[8:1],1x/5x,,,,,
{4}8/4-1[8:1],4/8-4[8:1],8/1-5[8:1],1/8<5[8:1],8/1>4[8:1],1/5-7[8:1],4qq4[8:3]/5pp8[8:3],,,
{4}3x/7x,5/6,5/4>1[4:1],,B5/E6,B6/E7/1pp4[4:2],1/7V58[4:1],,
{12},,4x/8x,4x/8x,,2x/6x,2x/6x,,,
{4}3>1[8:1]/8<5[8:1],,2V48[4:1]/5v6[4:1],,,1q5[8:1]/8qq6[8:1],1x/8x,
{12}4h[4:1]/7h[4:1],,,,,2/5,2h[4:1]/5h[4:1],,,,,
{12}5/6,5h[4:1]/6h[4:1],,,,,3/4,3h[4:1]/4h[4:1],,,,,
{12}4/6,4h[4:1]/6h[4:1],,,,,3/5,3h[4:1]/5h[4:1],,,,,4/5,4/5,,,
{4}6/3z7[4:3],,,,C/B4/B5,,,
{4}4b-1[8:1]/5b-8[8:1],4/5,C/B3/B7,
{4}2/8v5[8:1],8/1v4[8:1],1/7v2[8:1],3/7,
{4}3/1<5[8:1],,6/8>4[8:1],,3/1<5[8:1],,
{4}6/8v5[8:1],8/4v1[8:1],4/5<4[4:1],,,
{4}3>8[8:1]/7<4[8:1],3qq8[8:3]/7qq4[8:3],,,2/6,
{4}3v2[8:1]/7v6[8:1],,1v2[8:1]/7v8[8:1],,3-5[8:1]/6-4[8:1],,
{4}1/8xqq8[4:1],8/1-3[8:1],1>8[8:3]*pp8[8:3],,,B3/B4/B5/B6,
{4}1/7-3[8:1],7/3-7[8:1],3/8-4[8:1],2/8,
{4}5/1>5[8:1],1/7,3/8<4[8:1],2/8,
{4}6/1-4[8:1],1/5-8[8:1],4>7[4:1]/5p6[4:1],,,
{4}5-2[8:1]/6-1[8:1],,3-8[8:1]/4-7[8:1],,
{4}4/6-1[8:1],6/3-8[8:1],3/5,
{4}6/5<8[8:1],4/5>2[8:1],8/5<8[8:1],2/5>2[8:1],5/8,
{12}1x/8x,,2x/4x,2x/4x-1[8:1],,,4b/5b-8[8:1],,,5b/7b,,,
{12}1h[12:2]/8h[12:2],,,7/8,,1/8,1h[12:2]/8h[12:2],,,1/2,,,
{4}2>5[8:1]/8<5[8:1],2/8qq5[8:3],B4/E4,B1/E2,
{12}2h[12:2]/4h[12:2],,,4/5,,5/7,5h[12:2]/7h[12:2],,,4/5,,2/4,2/4,,5/7,5/7,,4/5,
{12}4-1[8:1]/5-8[8:1],,,4x/5x,,,5/2-6[8:1],1/4,,,,,4/7-3[8:1],5/8,,,,,
{4}1>4[8:1]/5<8[8:1],5/1-5[8:1],1/5-8[8:1],4/5,
{6}8/E4,7/E3,6/E2,1/E6,2/E7,3/E8,
{4}8/B4/E4,1/B5/E6,6/B2/E2,B7/E8/3-6[8:1],
E
Re:MASTER
最終更新:2026年04月01日 21:46