アットウィキロゴ

なだめスかし Negotiation(TVsize)

アーティスト 鹿乃と宇崎ちゃん

BPM BASIC ADVANCED EXPERT MASTER Re:MASTER
150 3 6 8 12 -

EXPERT MASTER Re:MASTER
譜面制作者 はっぴー アマリリス -

BASIC


ADVANCED


EXPERT


MASTER

(150)
{2}7h[4:1]/8-4[8:1],2h[4:1]/1-5[8:1],{4}56,1^6[8:1]/2^5[8:1],,,
{16}3,4,3,4,,,6,5,6,5,,,1x/2x,,,,7,8,7,8,,,2,1,2,1,,,{4}B2/B3/E3/Cf/B6/B7/E7,
1b/8b,{16}6,5,,47,,3,4,,25,,25,,6,4,6,,3,5,3,,4,4,,5,5-8[8:1],,,,
2,,2,,2,1,,38,,2,1,,7,8h[16:3],,,6,,6,5,,47,,36,,25,{2}2^5[8:1]/5^8[8:1],

{8}4,5,{16}6,6h[16:3],,,{8}5,46,,6,5,4,{16}3,3h[16:3],,,{8}4,35,6-1[8:1],
5,4,,3-8[8:1],4,5,,6-1[8:1],5,4,,3-8[8:1],4,5,,,
27,8,1,{16}2,2h[16:3],,,{8}1,28,,2,1,8,{16}7,7h[16:3],,,8,,17,,{4}2-5[8:1],
1x/2x,7-4[8:1],8x/7x,2-5[8:1],{8}8x/2x,7,64,,5,4,,

{16}3b/6b,,4,5,4h[8:1],,6,6,,3,4,3,4h[8:1],,2,2,,,5,4,5h[8:1],,4,,B4/B5,,,E3/E7,,,B1/B8,,
,,4,5,4h[8:1],,6,6,,3,4,3,4h[8:1],,2,2,,,6,5,6h[8:1],,5,,B5/B6,,,E4/E8,,,B2/B1,,
,,5,4,5h[8:1],,3,3,,6,5,6,5h[8:1],,7,7,,,3,4,3h[8:1],,4,,3x/4x,,,1x/8x,,,5x/6x,,
5x/6x,,,1x/2x,,,4x/7x,,,,4x/3x,,,8x/7x,,,{2}B3/B4/E3/E4/E5/Cf,3/6p3[4:1],

{8}1-4[8:1],,4,,8,7,65,1b,8-5[8:1],,5,,1,2,34,8b,
1-4[8:1],,{16}6,,,6hx[16:3],,,5,,47,,,3hx[16:3],,,4,,52,,,6hx[16:3],,,5,,{4}38,
8<4[4:1],4<8[4:1],2,4-1[4:1],1-4[4:1],6,8,{8}36,{2}4^1[8:1]/5-1[8:1],
5^8[8:1]/4-8[8:1],4^1[8:1]/5-1[8:1],{8}36,36,,45,27,
1-4[8:1]/8-5[8:1],,1b/8b,,4h[8:1],6,5h[8:1],3,4h[8:1],7,5h[8:1],2,4h[8:1],8,5h[8:1],1,
27,{16}3,5,3,,6,4,6,,2,4,2,,7,5,7,,1x/8x,,,3x/4x,,,{4}5x/6x,1b-4[8:1]/8b,

{16}1x/6,,5,5x-8[8:1],,3,,5x,,2,2x-7[8:1],,4,,2x,,5,,,6,,,17,,35,,,,26,,5,4,
5,,37,3v5[16:3]/7V15[16:3],{2},{16}3x/7x,,,,26,,48,4v6[16:3]/8V26[16:3],{2},{16}4x/8x,,,,
3b/7b,,4,4x-1[8:1],,6,,4x,,7,7x-2[8:1],,5,,7x,,4,,,35,,,1b/7b,,1b/7b,,,,38,,2,1,
2,,7,8,7,,4,4h[8:1],,5,5h[8:1],,{8}3,2,15,4h[8:1]/8h[8:1],,26,{4}37,Cf,

1^4[8:1]/8,8^5[8:1],1^4[8:1],7-3[8:1],2-6[8:1],7,45,{8}57,6,
24,3,57,6,15,3,48,6,{4}5/8>4[4:1],4<8[4:1],8,5,
5^8[8:1]/4,4^1[8:1],5^8[8:1],3-7[8:1],6-2[8:1],1w5[8:1],1x,37,
{16}2,1,2,1,,,7,8,7-4[8:1],8,,,7x,,,,3,4,3,4,,,6,5,6-1[8:1],5,,,6x,,,,
37,,2,4,2,4,2,4,,5,3,5,3,5,3,5h[16:3],,,7,5,7,5,7,5,,2,7,,1-5[16:1]/8-4[16:1],,,1x/8x,{1}Cf,,,,E

Re:MASTER


  • MASTER譜面を追加しました。修正等ありましたらよろしくお願いします。 -- けもがみ (2026-04-10 12:41:58)
名前:
コメント:

タグ:

+ タグ編集
  • タグ:
最終更新:2026年04月10日 12:41