BASIC
ADVANCED
EXPERT
MASTER
(175)
{4},,,,
{1}Ch[1:3]/8x<3[4:5],
,4<8[4:5],
,Ch[1:3]/1x>6[4:5],
,5>1[4:5],
{4},,,1x,
2pp5[2:1],{8}8,8,,1,{4}1,
{1}8/4V25-1[2:1],
{4}3/7qq4[2:1],{8}1,1,,8,{4}8,
4/8V62-4[2:1],5,,,6qq3[2:1],
{8}1,1,,8,{4}8,
{12}1x,2x,3x,4x,5x,6x,7x,8x,1x,2x,3x,4x,
{4}5x/1x,{8}4/7,4/7,,6/2,{4}6/2,
{8}1/7,1/7,,B4/E5,B2/E3,E7/B6,{4}C,
{8}8<5[8:1],,,3>8[8:1],,,{4}6>3[8:1],
{8},1<6[8:1],,,{4}C,E6/B5/B4/E4/E5f,
2-5[8:1],{8}2/1,1-6[8:1],,1/8,{4}8,
7-4[8:1],{8}7/8,8-3[8:1],,8/1,{4}1,
2-6[8:1],{8}2/4,4>1[8:1],,4/5,{4}5,
7-3[8:1],{8}7/5,5<8[8:1],,5/4,{4}4,
1h[8:1]/2h[8:1],1h[8:1]/2h[8:1],3h[8:1]/4h[8:1],3h[8:1]/4h[8:1],
5h[8:1]/6h[8:1],5h[8:1]/6h[8:1],7h[8:1]/8h[8:1],8h[8:1]/7h[8:1],
{8}1,1,2/8,2/8,3/7,3/7,4/6,4/6,
{16}7,5,7,5,8-4[8:1],6,8,6,{4}8,5/3,
{2}2x-5[8:1]/4x-8[8:1],4-2[8:1]/7-1[8:1],
{16}1,2,,8/3,,2,{8}1,{16}3h[8:1]/8h[8:1],,,1/6,,7,{8}8,
{2}6-8[8:1]/1-5[8:1],3-1[8:1]/7-4[8:1],
{12}E2,E3,E4,E6,E7,E8,A2,A3,A4,A6,A7,A8,
{2}3x-8[8:1]/1x-5[8:1],1-3[8:1]/6-4[8:1],
{16}4,3,,5/2,,3,{8}4,{16}2h[8:1]/5h[8:1],,,4/7,,6,{8}5,
{2}7<4[8:1]/4>1[8:1],4-1[8:1]*-7[8:1],
{12}2,8,2,6,8,6,3,5,1,7b,,,{4}6/2-6[12:1],
2/1V73[4:1],{8}5,5,{4}5-1[8:1],
5/7-3[12:1],7/8V26[4:1],{8}4,4,{4}4-8[8:1],
4/1-5[8:1],7/1>4[8:1],{8}8,7,{4}6/2,
{8}1-3[8:1],8-6[8:1],1-5[8:1],8,{4}1,3/7,
{8}2>5[8:1],6<1[8:1],2-6[8:1],6,{4}2,5/8,
{8}7<4[8:1],3>8[8:1],7-3[8:1],3,{4}7,4/1,
{8}2-7[8:1],6-3[8:1],2<4b[4:1],6,{2}2,
{12}2,3,4,6,7,8,3,2,1,5,6,7,
{1}8/Ch[2:3],
{4},,,,E8,
E7,E6,E5,
E4,E3,{2}E2/C,
{4}8h[8:1],7h[8:1]/5h[8:1],6h[8:1]/4h[8:1],{16}3,5,3,5,
{4}2h[8:1],3h[8:1]/4h[8:1],4h[8:1]/5h[8:1],{16}6,5,6,5,
{8}6,6,{16}1,8,1,8,{8}2,2,{16}8,1,8,1,
7,1,7,1,8,2,8,2,{32}8,7,6,5,4,3,2,1,{4}8b,
{8}7h[8:5]/5h[4:1],,,1h[8:5],,,{4}3h[2:1],
{8},5h[2:1],,,7,7,{4}8b/4b,
1-6[8:1]/2-6[8:1],1/2>4-8[4:1],{8}2/8,7,{4}6-2[8:1],
6/1-5[8:1],1/4-8-6[4:1],{8},5,{4}5,
8-3[8:1]/7-3[8:1],8/7<5-1[4:1],{8}7/1,2,{4}3>5[4:1],
{8}3/8h[4:1],,,B4/E5,{4}B7/E7,3b/8b,
1q5[8:1]/2-5[8:1],2/1V74[4:1],{8}1/4,3,{4}2-6[8:1],
2/4-8[8:1],4/8V61[4:1],{8},2,{4}2,
3-1[8:1]/8-4[8:1],3/8<5-1[4:1],{8}8/2,3,{4}4,
{2}8/5s1[4:1],{4}6bx,4/5,
1>5[4:1]/8q6[4:1],1/8,{8},,7/5,4>8[4:1],
,8V64[4:1],,4>8[4:1],,8,6,4,
4xh[4:3],,,7,{2}7-2[8:1],
{8}4-8[8:1],5,3-7[8:1],2,{4}5,1b/6b,
3>1[8:1]/8<5[8:1],3/8w4[8:1],8b,{8}2/6,2/6,
3,4,5h[2:1],E6,{4}E7,{8}8,8,
{4}1/5<8[8:1],{8}1,2>4[8:1],,6,{4}7V16-2[2:1],
{8}4,4,,5,{4}5,1b/8b,
{16}6,5,{8}7,8/1,{16}3,4,{8}2,8/7p3[8:1],1/6,7b/8b,
{16},,2,4,{8}2,{16}7,5,{8}7,8v5[8:1]/4v1[8:1],3/7,4b/8b,
{16},,6,8,{8}7,{16}2,1,{8}2,3/8,4/7,5/6,
7-4[8:1],8-3[8:1],7,8,6-1[8:1],5-2[8:1],6,5b,
,8,3/7-3[8:1],7/3-7[8:1],,,5-1[8:1],5,
{4}5-7[8:1]*-8[8:1],5-2[8:1]*-3[8:1],5,{8}1x,1,
8/2,{16}3,4,{8}3,{16}6,5,{8}7,{16}3,4,{8}2,{16}8,1,
{4}7q4[4:1],{8}3,2,1x,1x,{4}A6/B6/Cf/A3/B3,
{8}1V72b[8:1],1,,5V36b[8:1],{4}5,{8}2-5-1b[8:1],2,
,7q3<6[4:1],,,,,{4}5/1,
{8}3V15b[8:1],3,,8-4-7b[8:1],{4}8,3>1q5[4:1],
{8},,,5x/6,5/6x,6/7x,7/8x,8/1x,
{16}2,4,{8}3,4/5,{16}6,5,{8}7,8/1,{4}3/6,
{12}2,2,2,4,4,4,5x,5,5,5b/7b,{48},,,,,,,,{16}2,
1,2,1,3,8,3,8,4,7,4,7,{8}6/5,4,
{16}3h[8:1]/E1,,,2h[8:1]/E7,,,{8}1/E5,E4/1>4b[16:3],1,{16}1/8,7,6,5,
E
Re:MASTER
最終更新:2026年04月09日 20:08