アットウィキロゴ

超最終鬼畜妹フランドール・S

アーティスト ビートまりお×まろん

BPM BASIC ADVANCED EXPERT MASTER Re:MASTER
210 5 8 12+ 13+ -

EXPERT MASTER Re:MASTER
譜面制作者 鳩ホルダー Luxizhel -

BASIC


ADVANCED


EXPERT

(210)
{4},,,,
{1}5h[2:3]/3>4[4:5],
{4},,,35,
{1}4h[2:3]/6<5[4:5],
{4},,,64,
{1}3h[2:1]/7-4[4:1],
{1}6h[2:1]/2>5[4:1],
{2}7h[4:1]/5h[4:1],2h[4:1]/4h[4:1],
{16}18,,,,36,,,,4x,5x,4x,5x,4bx,,,,

{8}3h[8:3],,,4h[8:3],,,2,,
6h[8:3],,,5h[8:3],,,7,,
3h[8:3],,,4h[8:3],,,2,,
{4}34,34,25,,
{8}6h[8:3],,,5h[8:3],,,7,,
3h[8:3],,,4h[8:3],,,2,,
{8}24,,18,,57,,45,45,
,26,2-5[8:1]/6-1[8:1],,,,,,

8,8,4,4,6,6,78,,
1,1,5,5,3,3,21,,
3,3,8,8,2,2,34,,
6,6,1,1,7,7,65,,
{16}7,,7,,4,,4,,6,5,6,5,6b,,,,
2,,2,,5,,5,,3,4,3,4,3b,,,,
{8}45,,57,,18,,24,24,
,45,4/5w1[4:1],,,,,,
{2}A8/E1/A1/E2/A2,B3/B4/E5/A5,
A7/E7/B6/B5,B7/B8/E1/A1,
{16}E2,B2,B3,E4,,,,,E8,B7,B6,E6,,,1x,,
{8},8x,8x,,1x,,8bx/1bx,,
{2}A7/E7/B6/B5,B3/B4/E5/A5,
B1/B2/E3/A3,B7/B8/E1/A1,
{1}Chf[1:1],
{4},,,8b/1b,

{8}2,2h[8:1],1,1h[8:1],3,3h[8:1],8,8h[8:1],
1,1h[8:1],2,2h[8:1],3,3h[8:1],1,1h[8:1],
4,4h[8:1],3,3h[8:1],2,2h[8:1],1,1h[8:1],
{4}2,34,56,78,
{8}6,6h[8:1],1,1h[8:1],7,7h[8:1],8,8h[8:1],
5,5h[8:1],6,6h[8:1],7,7h[8:1],8,8h[8:1],
{8}7,,65,,43,,21,21,
,45,45,,6b/2b,,,,
{2}1>4[4:1],6<1[4:1],
{4}3<6[4:1],,8,8,
{2}8<5[4:1],3>8[4:1],
{4}6>3[4:1],,1,1,
{16}2,,2,,4,,,,34,,,45,,,56,,
{16}7,,7,,5,,,,65,,,54,,,43,,
{16}2,,2,,1,,,,21,,,18,,,87,,
{16}6,,6,,8,,,,78,,,81,,,12,,

{1}8bxh[2:3]/3bxV17V52[4:5],
,
1h[2:3]/6V82V47[4:5],
,
3h[2:3]/8q1V35[4:5],
,
6h[2:3]/1V75p4[4:5],
,
{2}2h[4:1]/4h[4:1],3h[4:1]/5h[4:1],
4h[4:1]/6h[4:1],7h[4:1]/5h[4:1],
7h[4:1]/4h[4:1],6h[4:1]/3h[4:1],
2h[4:1]/5h[4:1],1h[4:1]/4h[4:1],
{4}2h[4:1],4h[4:1],5h[4:1],7h[4:1],
1h[4:1],3h[4:1],5h[4:1],7h[4:1],
{1}Chf[1:1],
B2/B3/B6/B7,
{4}8w4[4:1],,,6b/2b-4[8:1],

{8}8-6[8:1],,1-5[8:1],,7,,6,6,
,78,78,,1-6[8:1]/2-5[8:1],,,,
7,7,5,5,4,4,2,,
34,,56,,78,78,8/7-5[8:1],,
1-3[8:1],,8-4[8:1],,2,,3,3,
,21,21,,8<5[8:1]/3>8[8:1],,,,
6,6,8,8,1,1,3,,
{8}2x/4x,,7x/5x,,
1x/8x,1x/8x,2b/7b-2[8:1],,
3-6[8:1],,8-4[8:1],,3,,2,2,
,12,12,,8-4[8:1]/7-3[8:1],,,,
2,2,4,4,6,6,8,8h[4:1],
,1,8<5[8:1]/1>4[8:1],,,,6b/3b-6[8:1],,
7-2[8:1],,1-5[8:1],,8,,7,7,
,78,78,,56,,47,,
3,2,1,8,7,6,45,,
{1}D8/A8/D1f/A1/D2,

{8}1bx/2bx,,4bx/3bx,,5bx/6bx,5bx/6bx,,8bx/7bx,
{16},,1bx,8bx,1bx,,2bx/7bx,,2bx-4[8:1]/7bx-5[8:1],,,,,,,,
{4}3x/6x,8b-4[8:1]/2b,1-5[8:1],7-4[8:1],
2-5[8:1],8-4[8:1],1-5[8:1],6<5[2:1],
{8},,,,,,56,56,
,78,8/7-3[8:1]*-4[8:1],,,,25,,
3,3,1,1,8,8,6,,
{16}7x/5x,,,,2x/4x,,,,8x,1x,8x,,2b/7b,,,,
{2}3/4-8[8:1],4/3-1[8:1],
{8}2,2,2>5[8:1]/1<6[8:1],,,,74,,
{2}6/5-1[8:1],5/6-8[8:1],
{8}7,7,78,,65,,5b/1b>8[2:1],,
Cf,,,,,,17,17,
,45,4-2[8:1]/5-7[8:1],,,,18,,
7,6,5,4,3,2,1bpp4[4:3]/8bqq5[4:3],,
{1},

2h[4:3]/4h[4:3],
7h[4:3]/5h[4:3],
{2}8h[4:1]/3h[4:1],1h[4:1]/6h[4:1],
{16}2,7,2,7,2,7,2,7,1,8,1,8,1,8,1,8,
1,2,3,4,5,6,7,8,1,2,3,4,5,6,7,8,
{4}1,3bv1b[2:1]/7bv5b[2:1],,,
,A6/B6/A2/B2/Cf,
E

MASTER

(210)
{4},,,,
1>8[4:10],,,,,,,1,
1>8[4:9],,,,,,,1,
1>8[4:5],,,,1>8[4:3],,,,
1-5[4:1],,8-4[4:1],,1,1,{16}1,8,1,8,2b/7b,,,,

{8}
5h[4:1]/3qq5[4:10],,,5h[4:1],,,5,,
6h[4:1],,,6h[4:1],,,6,,
7h[4:1],,,7h[4:1],,,7,,
8,,57,,36,,,,
4h[4:1]/5pp4[4:7],,,3h[4:1],,,3,,
2h[4:1],,,1h[4:1],,,1,,
2,,34,,45,,57,57,
,24,24,,1-5b[8:1]/8-4b[8:1],,,,

{16}
3-1[8:1],,4,,3,,4,,2-5[8:1],,1,,2bx,,,,
4-8[8:1],,5,,4,,5,,7>2[8:1],,6,,7bx,,,,
6-8[8:1],,5,,6,,5,,7-4[8:1],,8,,7bx,,,,
2,1,2,1,2,,7,8,7,8,7,,16,,,,
4/2-8[8:1],,,,25,,,,6,5,6,5,7,,,,
5/7-1[8:1],,,,47,,,,3,4,3,4,2b/5b,,,,
78,,,,56,,,,24,,,,13,,13,,
,,68,,68,,,,1,2,3,4,5,6,7,8,

{8}
1>8[4:13],,8,,6,,4,4,
,5,5,,7,,6-2[8:1],,
,,1-5[8:1],,,,4,4,
,3,3,2,1,,18,,
7-5[8:1],,8,,1-3[8:1],,8,8-4[8:1],
,2,2,1,1-5[8:1],,6,,
8-4[4:3]*V64[4:3],,,,,,,,
,,4-2[8:1]/5-7[8:1],,45,,1x/8x,,

{16}
12,,12,,34,,34,,56,,56,,47,,6,5,
6,5,6,,47,,47,,25,,25,,3,4,3,4,
2,,2,,16,,16,,38,,38,,2,1,2,1,
2-6[8:1]*-7[8:1],,,,2b,,,,5-2[8:1]*-8[8:1],,,,5b,,,,
1x/7x,,1x/7x,,24,,24,,57,,57,,48,,2,1,
2,1,2,,38,,38,,26,,26,,7,1,7,1,
{32}7x,D7,A6,D6,A5,,,,2x,D3,A3,D4,A4,,,,8x,B8,C,B4,,,,,{8}2,12,,7,78,,16,,B3/B4/E3/E5,,

{16}
8h[2:1],,,,B7,,,,6h[2:1],,,,B5,,,,
4h[2:1],,,,B3,,,,2h[2:1],,,,B1,,,,
7h[2:1],,,,B6/E7,,,,1h[2:1],,,,B3/E4,,,,
6h[2:1],,,,B7/E8,,,,3h[4:1],,,,1x,,,,
8,5,8,5,8,5,8,5,7h[8:1],,,4h[8:1]/6h[8:1],,,25,,
1,4,1,4,1,4,1,4,1h[8:1],,,2h[8:1]/8h[8:1],,,37,,
6,4,6,4,7,5,7,5,8h[8:1],,,1h[8:1]/2h[8:1],,,37,,
4,6,4,6,3,5,3,5,2,4,2,4,1,3,1,3,

{4}
8b-3V15[4:7],,,,,,,,
7-3<6-2[4:7],,4h[1:1],,,,,,
3-7>1v6[4:7],,5h[1:1],,,,,,
7>3[4:3],,4,,4-8[4:1],,,,

1bxh[4:3],,2h[4:3],,3h[4:3],,4h[4:3],,
5h[4:3],,6h[4:3],,7h[4:3],,8h[2:1],,
1bxh[2:1],2,3h[2:1],4,5bxh[2:1],6,7h[2:1],8,
1>8[4:3],,,,Chf[1:1],,,,,,2-5[8:1]/7-4[8:1],2b/7b,

{16}
8x/1x-5[8:1],,,,1/7-4[8:1],,,,7/3-8[8:1],,,,36,,6<1[8:1],,
,,{24}6/2x,3x,4x,{16}5x,,,,4-1[8:1]/8-5[8:1],,,,48,,,,
2h[8:1],,4,,7h[8:1],,5,,46,,1,8,1,,2,,
3-6[8:1],,7-4[8:1],,3>8[8:1],,7,,3,,,,2x/6x,,,,
1b/8b-4[8:1],,,,8/2-5[8:1],,,,2/6-1[8:1],,,,36,,3>8[8:1],,
,,{24}3/7x,6x,5x,{16}4x,,,,1-4[8:1]/5-8[8:1],,,,15,,,,
7h[8:1],,5,,2h[8:1],,4,,35,,7,8,7,,18,,
1bh[8:1]/2bh[8:1],,,,7bh[8:1]/8bh[8:1],,,,1-5[8:1]/8-4[8:1],27,36,,,,,,
2-6[8:1],,1,,2,,7-4[8:1],,8,,7,,1,,1>4[8:1],,
,,{24}1x/5,6,7,{16}8,,,,3x-8[8:1]/7x-4[8:1],,,,37,,,,
1,,5,,34,,2,,8,,4,,56,,8b-4[8:1],,
1-3[8:1],,8-6[8:1],,1-5[8:1],,8,,1,,,,37,,,,
2/6h[8:1],,,8,6,,15,,26,,37,,48,,1/5>2[8:1],,
,,{24}15,8,7,{16}6,,,,1x-4[8:1]/5x-8[8:1],,,,15,,,,
13,,2,,68,,7,,18,,2,1,2pp1[2:1]*>8[2:1],,38,,
,,,,,,,,,,,,1x/8x,,,,

7b/8b,,,,1b/2b,,,,5b/7b,,5b/7b,,,,2b/4b,,
,,1b/8b,2bx/7bx,3bx/6bx,,3bx/6bx,,3bxh[16:3]/6bxh[16:3],,,,A4/A5/B4/B5/E5f,,,,
2,1,2,1,3,8,3,8,4,7,4,7,5x/6x,,5x/6xh[8:5],,
,,7bx,,1bx,,3bx,,5bx-1[8:1],,,,57,,,,
2-4[8:1]/8-4[8:1],,,,28,,,,35,,2,1,2,,3/8h[4:1],,
,,4,7,3,6,2,5,1V35[8:1]*q5[8:1],,,,,,,,
7,,6,5,6,,3,4,2,,6,5,7,,38,,
3b/8b,,,,1b/6b,,,,2b-5[8:1]/7b-4[8:1],,1b/8b,,2b/7b,,,,
18,,2,1,2,,7,8,7,8,6,1,5,2,4h[4:1],,
,,3,4,3,,6,5,6-3[8:1],,,,1,,1,,
25,,3,4,2,,6,5,7,,2,1,3,,4/8<4[4:1],,
,,3,,2,,1,,8w4[8:1],,,,8,,,,
2h[8:1]/6h[8:1],,,,48,,,,2,1,2,1,3,,48,,
,,6,5,8,,3,4,1>4[8:1]*<6[8:1],,,,1bx,,,,
3,5,3,5,3,5,3,5,4,6,4,6,4,6,4,6,
5,7,5,7,6,8,6,8,{32}E5,E4,E3,E2,E1,E8,E7,E6,{16}Cf/E5,,,,

2h[4:3]/8<3[2:1],,,,,,,,,,,,,,,,
7h[4:3]/1>6[2:1],,,,,,,,,,,,,,,,
2h[4:1]/8-4[8:1],,,,,,,,3h[4:1]/5-1[8:1],,,,,,,,
2,8,2,8,{24}2b,3,4,5,,,8b,7,6,5,,,1b,2,3,4,,,
{16}7b,1,7,1,6,2,6,2,5,3,5,3,4,4,4,4,
4>4[4:3]*<4[4:3],,,,4b,,,,,,,,,,,,,,,,
A3/A4/A5/A6/B3/B4/B5/B6/E4/E5f/E6,,,,,,,,,,,,,,,,,,,,,,,,,,,,
E

Re:MASTER


名前:
コメント:

タグ:

+ タグ編集
  • タグ:
最終更新:2026年04月09日 19:44