アットウィキロゴ

星めぐり、果ての君へ。

アーティスト TAKU1175 ft.駄々子

BPM BASIC ADVANCED EXPERT MASTER Re:MASTER
175 4 7+ 10+ 12+ 13

EXPERT MASTER Re:MASTER
譜面制作者 隅田川星人 隅田川華火大会 Jack

BASIC

(175){1},,1h[1:1],
{8},,,,,,,8x,
{1},,
{4},1x,,1,,2,,2,,3,,3,,4,,4,,5,,5,,4h[8:5]/5h[8:5],,,
{1},B4,B5,B3,B6,B2,C1xh[1:1],,
{2}8,8,{1}7,{2}6,6,{1}5,{2}4,4,{1}3,{2}2,2,
{1}1/8,1-4[4:3],,8-5[4:3],,4-1[4:3],,8h[1:1],,1h[1:1]/2h[1:1],,
{1}3h[1:1]/4h[1:1],,4h[1:1]/5h[1:1],,C1hf[1:1],,
{4},1,,1,,2,2,2,,3,,3,,4,4,4/5,,5,,5,,6,6,6,,7,,7,,1/8,1/8,1x/8,
,8,,8,,7,7,7,,6,,6,,5,5,4/5,,3,,3,,2,2,2,
,1,,1,,1/8,1h[2:1]/8h[2:1],,
{1},1-4[4:3],,8-5[4:3],,1-5[4:3],,8-4[4:3],,1b,
,1h[1:1]/8h[1:1],,1-4[4:3]/8-5[4:3],,C1hf[4:5],,
{4},1x/8x,1x/8x,1x/8x,,7,7,7,,6,6,6,,5,5,5,
,4,4,4,,5,5,5,,4/5,4/5,4x/5x,,3,3,3,,2,2,2,,1,1,1,
,1/8,1/8,1/8,
{1}1-4[4:3]/8,,5-8[4:3],,
{4},1,1,1,,8,8,8,
{1}1h[1:1]/8h[1:1],,,2h[1:1]/7h[1:1],,
{4},3x,,3/4,,5,,5/6,,4,,4,,4/5,4h[8:3]/5h[8:3],,
{1},
{1}C1hf[8:7],
{1},
{1},
{1},
E

ADVANCED


EXPERT


MASTER


Re:MASTER


名前:
コメント:

タグ:

+ タグ編集
  • タグ:
最終更新:2026年03月29日 09:24