アットウィキロゴ

8-EM

アーティスト Sampling Masters AYA

BPM BASIC ADVANCED EXPERT MASTER Re:MASTER
168 5 8 12+ 13+ -

EXPERT MASTER Re:MASTER
譜面制作者 Jack 小鳥遊チミ -

BASIC


ADVANCED


EXPERT


MASTER

(168)
{1},
{1}4b/5<4[1:2],
{1},
{1}5<4[2:3],
{1},
{8}6h[1:1],5,,5,,5,,5,
{8}3h[1:1],4,,4,,4,,4,
{8}7h[8:7],5,,5,,5,,5,
{16}5/7,,4/6,,3/5,,2,4,2,4,2,,3/5,,1/7,2/6,
{1}3/5bs1[4:5]*z1[4:5],
{1},
{1}3b-6[4:5]/6b-3[4:5],
{1},
{1}2b-6[4:3]*<3[4:5]/6b,
{1},
{1}3bV14[4:5]/5bV74[4:5],
{4},,,3/5,
{16}4h[8:1]/7h[8:1],,,,6,5,,5,6,,6,4,,4,5,,
{16}2h[8:1]/4h[8:1],,,,3,4,,4,3,,3,5,,5,4,,
{16}5h[8:1]/7h[8:1],,,,6,5,,5,6,,6,4,,4,5,,
{16}2h[8:1]/4h[8:1],,,,3,4,,4,3h[8:1],,5,5,4,,3/6,,
{16}4h[8:1]/5h[8:1],,,,6,4,,4,5,,5,3,,3,4,,
{16}2h[8:1]/4h[8:1],,,,3,5,,5,4,,4,6,,6,5,,
{16}5h[8:1]/7h[8:1],,,,6,4,,4,5,,5,3,,3,4,,
{8}2/4,3/5,4/6,5/7,4/8,3/7,2b/6b,,
{8}1-7[32:3],5,6,6h[4:1],5-8[8:1],4,3,,
{8}2-6[8:1],1,8h[4:1],,5-8[8:1],4,3,,
{8}7<4[8:1],4<7[8:1],8,1,2,3/8,4/7,,
{8}6h[4:1],8b,5h[4:1],8b,4h[4:1],1b,3h[4:1],1b,
{8}8-2[32:3],4,3,3h[4:1],4-1[8:1],5,6,,
{8}7-3[8:1],8,1h[4:1],,4-1[8:1],5,6>3[8:1],,
{8}1,1<6[8:1],,4,4>1[8:1],,7,7<4[8:1],
{8},1,1-5[8:1],,8,8,,3/7,
{8}8-2[32:3],4,3,3h[4:1],4-1[8:1],5,6-4[8:1],,
{8}6-3[8:1],8,6V84[4:1],2,6,1,1,,
{8}2>5[8:1],5>2[8:1],1,8,7,1/6,2/5,,
{8}3h[4:1],1b,4h[4:1],1b,5h[4:1],8b,6h[4:1],8b,
{8}1-7[32:3],5,6,6h[4:1],5-8[8:1],4,3-5[8:1],,
{8}3-6[8:1],1,3V15[4:1],7,3,8,8,,
{16}5/7,,4/8,,7,5h[8:1],,6,4h[8:1],,5,3h[8:1],,4,2,,
{16}2/4,,1/5,,2,4,3,7,5,6,1,4,3,8,5,6,
{16}1b>8[4:13],,,,,,,C1f,,,,,,,,,
{1},
{16},,,,,,,C1f,,,,,,,,,
{1},
{4}5/6h[4:1],B6/B7,3h[4:1]/4,B2/B3,
{4}5/7h[4:1],B1/E1,2h[4:1]/4,E1/B8,
{16}5h[16:3]/7,,,6,5,,4/7,,1/8,,3,4,2,4,3,4,
{16}1h[16:3],,,4,2,,3/5,,2/6,,1,8,2-6[8:1],7,1,8,
{8}2b,,,,,,5,5,
{8}6h[8:7],,,,,,4,4,
{8}3h[8:7],,,,,,5,5,
{8}6h[4:3],,,,,,4,4,
{8}3x/5x,2,3/4,5,3-1[8:1]/4,,,,
{8}4x/6x,7,5/6,4,5/6-8[8:1],,,,
{8}2x,2,1/5,,7x,7,4/8,,
{8}2x/6x,1,3x/7x,8,1xw5[8:1]/7,,1b,,
{8}8,7-2[8:1],4,3-6[8:1],,1,,8,
{8}8,7-2[8:1],4,3-6[8:1],,1,,8,
{8}8,8,B6/E6/B7/E8,,1/4,1/4,B2/E2/B3/E4,,
{4}5/7,C1/E1/E5,2/4,C1/E1/E5,
{8}7,7,6V42[4:1],6,2V86[4:1],,6,,
{8}2,2,3V57[4:1],3,7V13[4:1],,3,,
{8}5>6[1:1],,1,1h[4:1],,,3,3h[8:3],
{8},,,4,4,,3/6,,
{8}1,2-7[8:1],5,6-3[8:1],,8,,1,
{8}1,2-7[8:1],5,6-3[8:1],,8,,1,
{8}1,1,B2/E2/B3/E4,,5/8,5/8,B6/E6/B7/E8,,
{4}2/4,C1/E1/E5,5/7,C1/E1/E5,
{8}2,2,3V57[4:1],3,7V13[4:1],,3,,
{8}7,7,6V42[4:1],6,2V86[4:1],,6,,
{8}4<3[1:1],,8,8h[4:1],,,6,6h[8:3],
{8},,,C1f,,,1/8,,
{4}E6,B6,B7,E8,
{4}E6,B6,B7,E8,
{8}E4,B4,B3,C1,B2,,E2,,
{8}E4,B4,B3,C1,B2,,E2,,
{4}E4/8h[2:1],B3,B2,E2,
{4}E4/8h[2:1],B3,B2,E2,
{8}E6/1h[2:1],B5,B6,C1,B7,,E8,,
{32}6,,5,,6,,,,3,,4,,3,,,,7x,6x,5x,4x,3x,2x,1x,8x,3b/7x,,,,,,,,
{16}1-4[8:1]/2,,8,,1/7,,5-2[8:1],,6,,7,,8x-4[8:1],7x,6x,5x,
{16}4x/8,,7,,7,,1/6,,3,4,2,5,1b,,,,
{8}8,7>2[8:1],6,5,4<7[8:1],3,2q5[8:3],1,
{8}8,,,,5/6,2/8,3/7,,
{16}7/8-5[8:1],,1,,2/8,,4-7[8:1],,3,,2/4,,1x-5[8:1],2x,3x,4x,
{16}1/5x,,2,,2,,3/8,,6,5,7,4,8b,5b,8b,5b,
{8}7,8<5[8:1],1,2,3>8[8:1],4,5p2[8:3],6,
{8}7,,,,3/4,1/7,2/6,,
{16}1-4[8:1]/2,,8,,1/7,,5-2[8:1],,6,,5/7,,1x-5[8:1],8x,7x,6x,
{16}5x,,1x>4[8:1],8x,7x,6x,5x,,1x-5[8:1],8x,7x,6x,5x,,,,
{16}7,4,7,4,6,3,6,3,5,2,5,2,4,1,4,1,
{16}6,2,6,2,7,3,7,3,8,5,6,4,8b,,,,
{16}7/8-5[8:1],,1,,2/8,,4-7[8:1],,3,,2/4,,8x-4[8:1],1x,2x,3x,
{16}4x,,8x<5[8:1],1x,2x,3x,4x,,8x-4[8:1],1x,2x,3x,4x,,,,
{16}2,5,2,5,3,6,3,6,4,7,4,7,5,8,5,8,
{16}3,7,3,7,2,6,2,6,1,4,3,5,1b,,,,
{16}1x/8x,,6,5,4/7,,3,4,2/5,,7,8,7,8,7,,
{32}1/2,3x,4x,5x,,,,,7/8,6x,5x,4x,,,,,2,,1,,2,,1,,2,3,4,5,6,7,8,1,
{1}2bqq5[8:13]/6bqq1[8:13],
{1},
{1},
{1},
E

Re:MASTER


名前:
コメント:

タグ:

+ タグ編集
  • タグ:
最終更新:2026年04月07日 21:33