EASY
BASIC
ADVANCED
EXPERT
MASTER
(155)
{1},
{16}2/4,,3/5,,6,4,,5/7,,4/6,,3,5,,4,,
{16}2/5,,3/6,,7,5,,4/6,,3/5,,6,4,,3,,
{16}5/7,,4/6,,3,5,,2/4,,3/5,,6,4,,5,,
{16}4/7,,3/6,,2,4,,3/5,,4/6,,3,5,,6,,
{16}3/5,,4/6,,2,5,,4/6,,3/5,,7,4,,2/5,,
{16}4/6,,3/5,,7,4,,3/6,,2/5,,2,4,,5,,
{16}4/6,,3/5,,7,4,,3/5,,4/6,,2,5,,4/7,,
{16}3/5,,4/6,,2,5,,3/6,,4/7,,7,5,,4,,
{16}3/8b,,2/7,,1/6,,,1,6,2,7,3,8,,4,,
{16}3/8,,2/7,,1/6,,,,2b/4,,,5b/7,,,1b/6,,
{16},,2/7,,3/8,,,8,3,7,2,6,1,,5,,
{16}1/6,,2/7,,3/8,,,,6b/8,,,1b/3,,,2/5b,,
{16},,3/6,,4/7,,,4,7,3,6,2,5,,1,,
{16}2/5,,3/6,,4/7,,,,1/3b,,,6/8b,,,4b/7,,
{16},,3/6,,2/5,,,5,2,6,3,7,4,,8,,
{16}4/7,,3/6,,2/5,,,,2-5[16:1]/6-1[16:1],,,2b/6b,,,,,
{16}7/8,,,,5,6,4,5,3,4,3,,4/5,,,1/2,
{16},,4,3,5,2,4,3,5,4,5,4,6,5,6,5,
{16},,7/8,,6,5,4,,2/3,,,5/6,,,4,,
{16}3,4,5,,6/7,,,
{615}3/4,,,,,,,,,,,,,,,,,,,,,,,,,,,,,,,,,,,,,,,,,,,,,,,,,,,,,,,,,,,,,,,,,,,,,,,,,,,,,,,,,,,,,,,,,,,,,,,,,,,,,,,,,,,,,,,,,,,,,,,,,,,,,,,,,,,,,,,,,,,,,,,,,,,,,,,,,,,,,,,,,,,,,,,,,,,,,
{641}5,,,,,,,,,,,,,,,,,,,,
{16}5b,,,,
{16}3/4,,,5,4,,6,,5/6,,,4,5,,3,,
{16}3/4,,,5,4,,6,,5/6,,,4,5,,3,,
{16}3/5,,,6,4,,5/7,,4/6,,,3,5,,2/4,,
{16}3/5,,,6,4,,5/7,,4/6,,,3,5,,2/4,,
{16}2/5,,,6,3,,5/8,,4/7,,,3,6,,1/4,,
{16}2/5,,,6,3,,5/8,,4/7,,,3,6,,1/4,,
{16}2/6,,,7,3,,1/5,,3/7,,,2,6,,4/8,,
{16}2/6,,,7,3,,1/5,,3/7,,,2,6,,4/8,,
{16}1^4[8:1],,,7,7,,8,,1^6[8:1],,,3,3,,2,,
{16}1q5[8:1],,,7,7,,8,,1p5[8:1],,,2,2,,8,,
{16}8^3[8:1],,,6,6,,7,,8^5[8:1],,,2,2,,1,,
{16}8q4[8:1],,,6,6,,7,,8p4[8:1],,,3,3,,2,,
{16}1q5[8:1],,,7,7,,8,,1p5[8:1],,,3,3,,2,,
{16}1q6[8:1],,,7,7,,8,,1p4[8:1],,,2,2,,8,,
{16}8q4[8:1],,,6,6,,7,,8p4[8:1],,,2,2,,1,,
{8}8,,1/5,2/6,3/7,4/8,3/7,2pp4[4:1]/6pp8[4:1],
{8},,,,,1/5,4/8,3qq2[4:1]/7qq6[4:1],
{16},,,,,,,,,,3h[8:1]/7h[8:1],,,4h[8:1]/8h[8:1],,,
{8}1V75[4:1]/5V31[4:1],,,,,1/5,,2pp5[2:1]/6pp1[2:1],
{8},,,,,,,2V46[4:1]/8V26[4:1],
{8},,,,,3/5,2/6,1V73[4:1]/7V53[4:1],
{8},,,,,4/6,3/7,2V47[4:1]/8V63[4:1],
{8},,,,,2v4[8:1],,8v6[8:1],
{8},1V36[4:1],1V74[4:1],,,,,1-4[4:1]/5-8[4:1],
{8},,,,,2/6,1/5,4q1[4:1]/8q5[4:1],
{16},,,,,,,,,,3h[8:1]/7h[8:1],,,4h[8:1]/8h[8:1],,,
{8}1V74[4:1]/5V38[4:1],,,,,4V68[4:1]/8V24[4:1],,4v2[4:1]/8v6[4:1],
{8},,,,,,3/8,1p4[4:1]/4p7[4:1],
{8},,,,,2/7,1/6,5q2[4:1]/8q5[4:1],
{8},,,,,1/4,3/8,2pp2[4:1]/7qq7[4:1],
{8},2<5[8:5]/7>4[8:5],,,,,,,
{8},,,,,5,3,7b,
{16}1-5[8:1],,1,1,7-3[8:1],,7,7,2-5[8:1],,2,2,8-4[8:1],,8,8,
{16}2-6[8:1],,2,2,7-4[8:1],,7,7,1w5[8:1],,1,1,,,,,
{16},,5/6,,3,4,3,,4/5,,6,5,6,,5/2h[4:1],,
{16},,4,,6,5,6,,4/5,,3,4,3,,4/7h[4:1],,
{16},,8,,2,1,2,,1/8,,7,8,7,,8/3h[4:1],,
{16},,1,,7,8,7,,1/8,,2,1,2,,6/1h[4:1],,
{16},,3,,3,4,5,,6,,6,5,4,,3/8h[4:1],,
{16},,6,,6,5,4,,3,,3,4,5,,7/4h[4:1],,
{16},,2,,2,1,8,,7,,7,8,1,,2/5h[4:1],,
{16},,7,,7,8,1,,2,,2,1,8,,1/7,,
{16},,2/8,,6,4,6,,1/2,,1/8,,7/8,,3,5,
{16}3,,2/7,,5,4,5,,3b-7[16:1],,,6b-2[16:1],,,
{8}4bw8[8:9],{1},
{16},,,,,,,,2h[8:1]/4h[8:1],,,5h[8:1]/7h[8:1],,,1<4[4:1]/3p2[4:1],,
{16},,,,,,,,1/3,,2/8,,1h[8:1]/7h[8:1],,,6q7[16:3]/8>5[16:3],
{16},,,,,,,,1h[8:1]/3h[8:1],,,5h[8:1]/7h[8:1],,,
{8}2pp5[8:5]/4pp7[8:5],{1},
{16}6b,,4,4,5,3,7,5,7,2,4,2,6,3,5,4,
{16}3/5,,4/6,,2,5,,4/6,,3/5,,7,4,,2/5,,
{16}4/6,,3/5,,7,4,,3/5,,2/4,,2,4,,5/7,,
{16}4/6,,3/5,,7,4,,3/5,,4/6,,2,5,,4/7,,
{16}3/5,,4/6,,2,5,,4/6,,5/7,,7,5,,2/4,,
{16}3/8b,,2/7,,1/6,,,2,7,1,6,3,8,,1/4,,
{16}2/7,,3/8,,1/6,,,,5b/4bv7[16:1],,,3b/4bv1[16:1],,,4b,,
{16},,2/7,,3/8,,,7,2,8,3,6,1,,5,,
{16}2/7,,1/6,,3/8,,,,4b/5bqq3[16:1],,,6b/5bpp7[16:1],,,5b,,
{16},,3/6,,4/7,,,3,6,4,7,2,5,,1/4,,
{16}3/6,,2/5,,4/7,,,,2b/1bpp3[16:1],,,8b/1bqq7[16:1],,,1b,,
{16},,3/6,,2/5,,,6,3,5,2,7,4,,5/8,,
{16}3/6,,4/7,,2/5,,,,2-5[16:1]/6-1[16:1],,,2b/6b,,,,,
{16}3/7,,,,3,1,4,8,5,7,3,,1/5,,,4/8,
{16},,3/6,,
{12}1,
{995}7,,,,,,,,,,,,,,,,,,,,,,,,,,,,,,,,,,,,,,,,,,,,,,,,,,,,,,,,,,,,,,,,,,,,,,,,,,,,,,,,,,,
{12}5,8,
{995}2,,,,,,,,,,,,,,,,,,,,,,,,,,,,,,,,,,,,,,,,,,,,,,,,,,,,,,,,,,,,,,,,,,,,,,,,,,,,,,,,,,,
{48}4,,,,3,,,1,,,5,,,7,,,
{16}3,,5/6,,,1,8,,3/4,,,5/6,,,4/8,,
{16},2,5,,6/8,,,1/3,,7,4,,1-6[16:1]/5-2[16:1],1h[8:1]/5h[8:1],,,,,
E
Re:MASTER
最終更新:2026年10月04日 09:43