アットウィキロゴ

Baqeela

アーティスト owl*tree

BPM BASIC ADVANCED EXPERT MASTER Re:MASTER
130 3 6 10+ 13+ -

EXPERT MASTER Re:MASTER
譜面制作者 アマリリス りんご Full Set -

BASIC


ADVANCED


EXPERT


MASTER

(130)
{4},,
5-8[8:1]/4-1[8:1],5xb/4xb,

2>6[2:3],6,,6,,7,,7h[4:1],
5>2[2:1],8,,{8}8,8xb/1xbh[16:3],
{16},7,8,6,1,5,2,4,,2,1,3,8,,6/4,,
6h[8:1],,5,,6h[8:1],,7,,6,5,,7/4,,5,6,,
2h[8:1],,4,,6,5,,2,4,3,,6/4,6/4,,7,,
3h[8:1],,4,,3h[8:1],,2,,3-5-1[8:1],4,,4,3,,7b,,,
7,8,6,1,5,2,4,,2,1,3,8,,6/4,,
7b,,{24}2x,3x,4x,7b,,,3x,4x,5x,
8b,,,3x,4x,5x,8b,,,4x,5,6,
1b,,,3x,4,5,8b,,,4x,5,6,
1b,,,3x,4,5,{16}8b,,7/3,,
2,2,8,8,1,1,7,7,8,8,6,6,
{12}7x/1x,7x/1x,7x/1x,
{16}7x/1x,,1,,6/2,,8-4[8:1],3,,3,{8}8,A1/D2f/A2,,

6h[4:1],B8/B1/E1,4h[4:1],B8/B1/E1,
6h[4:1],B8/B1/E1,4h[4:1],B8/B1/E1,
6h[4:1],B1/B2/E2,4h[4:1],B1/B2/E2,
6h[4:1],B1/B2/E2,4h[8:1],B8/B1/E1,
5/3,{16}4,4,6h[8:1],,4,5,3,4,,1,1q4[8:3]*p6[8:3],,8/2,,
{2},{8},6/4,8/2,,
3h[4:1],B1/B8/E1,5h[4:1],B1/B8/E1,
3h[4:1],B1/B8/E1,5h[4:1],B1/B8/E1,
3h[4:1],B8/B7/E8,5h[4:1],B8/B7/E8,
3h[4:1],B8/B7/E8,5h[8:1],B1/B8/E1,
6/4,{16}5,5,3h[8:1],,5,4,6,5,,8,{8}8,7/1,
6/8,7/5,6/4,5/3,{12}6/4,6/4,6/4,{8}7/3,,

6-8[8:1]/4,5,4-2[8:1],5,6-8[8:1],5,4>2[8:1],5,
6<8[8:1],5,4>2[8:1],5,6<8[8:1],5,4,5,
6/5,{16}4,4,8-6-4[8:1],,3,3,8,2,,1,1q4[8:3]*p6[8:3],,8/2,,
{2},{8},5/3,7/1,,
3-1[8:1]/5,4,5-7[8:1],4,3-1[8:1],4,5<7[8:1],4,
3>1[8:1],4,5<7[8:1],4,3>1[8:1],4,5,4,
3/4,{16}5,5,1-3-5[8:1],,6,6,1,7,,8,{8}8h[8:1],1,
2h[8:1],8h[8:1],6h[8:1],4,{12}B2,B8,B4,E6,E3,E7,

{4}2xqq7[1:1],A4/A5/D5/E5,3,{16}A4/A5/D5/E5,,,6,{8}6,,A4/A5/D5/E5,,
6b/8b,{16},8b/1b,{8},1b/3b,
7>2[2:1]/3,,A4/A5/D5/E5,,6,,A4/A5/D5/E5,3x,{16},
{8}1/3,6/8,1/3,7/5,4/2,{16}5,{8}5,6/4,
7pp2[1:1]/3,,A5/A4/D5/E5,,6,,{16}A5/A4/D5/E5,,,3,{8}3,,A5/A4/D5/E5,,
3b/1b,{16},1b/8b,{8},8b/6b,
2<7[2:1]/6,,A5/A4/D5/E5,,3,,A5/A4/D5/E5,6x,,
7/5,{12}7h[6:1]/5h[6:1],,,
8x/4x,7x/3x,6x/2x,5/1,5/1,5/1,

{8}6q2[8:1],2v5[8:1],6,,{16}3,3,4,4,{8}A1/A2/D2,A5/A6/D6,
3p7[8:1],7v4[8:1],3,,{16}6,6,5,5,{8}A8/A7/D8,A4/A3/D4,
{8}6-8-2[8:1],2v5[8:1],6,,{16}3,3,,7,1,8,2,, ||they ignored the triplet here??
2,1,3,8,2,1,3,8,2h[4:1],,
{24}E2,E1,E8,E7,E6,E5,E4,E3,E2,
{16}E1f,,3,3,5h[8:1],,4,4,{12}7,5,6,2,4,3,
{16}8x,4,6,2,8x,4,6,2,7x,3,5,1,7x,3,5,1,,
2,8,2,8,2,{24}8x,7x,6x,
{16}3,3,{24}1x,8x,7x,{16}4,4,8,{8},
4/2,7/5,4/2,7/5,4h[16:3],{16}8,8,,7/3,{8},
6/5,1/2,4/3,7/8,{16}5,5,1,1,,7/3,,

{8}8h[16:7]/2h[16:7],,,{48},,,,7x/3x,6x/4x,{4}5xw1[8:1],5b,
{16}3,4,2,,7/5,7/5,,1,8-6-4[8:1]*v3[8:1],2,{8},8,,
6/4,5,{16}4/2,4/2,,8,1-3-5[8:1]*v6[8:1],7,,,1,,,,
8p4[8:1]/4p8[8:1],8/4,{8},8b>3[8:1]/4b<7[8:1],,,,6/2,6/2,
6/2,5,{16}4/2,4/2,,8,1>5[8:1]*v6[8:1],7,,,1,,,,
3,4,2,,5/7,5/7,,1,8<4[8:1]*v3[8:1],2,{8},8,,
6/4,7,{16}4/2,4/2,,8,1z5[8:1],7,,,1,,8b,,,
7,8,6,1,5,2,4,,2,1,3,8,,6/4,,

{4}6>3[4:1],3>5[2:1],B7,5pp1[8:5],3,{8}2-6[8:1],2,{4}2,7/5,
3<6[4:1],6<4[2:1],B2,4qq8[8:5],6,{8}7-3[8:1],7,{4}7,2/4,
8>3[4:1],3>5[2:1],B6,5pp1[8:5],3,{8}2-6[8:1],2,{4}2,7/5,
1<6[4:1],6<4[2:1],B3,4pp8[2:1]*p1[2:1],,,,7/4,

6h[4:7],{2}B6/B5,B7/B8,B6/B5,{4}B7/B8,
3v8>2[1:1],{2}D7/E7,D5/E5,{16}D7/E7,,,,
8,8,,7/1,,6/2,,4,
4h[8:7],,,3,3,,,2,2,,,1,1,,8,,
7h[8:7],,,6,6,,,5,5,,,4,4,,3,,
{12}2,4,3,7,5,6,{16}3,5,4,6,{24}1,2,3,5,6,7,
{16}2,2,4,4,3,3,5,5,{32}4w8[8:1],5,6,7,8,1,2,3,{8}4xb,,

1>4[8:1],6,7/1,{16}8,8h[16:3],{8}6,2h[8:1],4v1[8:1]b,3,
6/4v7[8:1],5,4/2,3,8h[16:3]/5,{16}4,4,,3,1,2,
8<5[8:1],,3,,2/8,,1,1h[16:3],{8}3,7h[8:1],3,8b/1b,{16},
7,8,6,1,5,2,4,,2,1,3,8,4,7,5,
8<5[8:1],,3,,2/8,,1,1h[16:3],{8}3,7h[8:1],5v8[8:1]b,6,
3/5v2[8:1],4,5/7,6,1h[16:3]/4,{16}5,5,,6,8,7,
1>4[8:1],,6,,7/1,,8,8h[16:3],{8}6,2h[8:1],6,1b/8b,{16},
7,5,6,4,5,3,4h[8:1],,2,4,3,5,4,6,5,
7,8,7,1,7,2,7,3h[8:1],,8,4,6,2,,5/4,,

7b,,{24}4,5,4,7b,,,3,5,3,
8b,,,4,5,4,8b,,,3,5,3,
7b,,,3,4,3,8b,,,4,5,4,
7b,,,3,4,3,{16}8b,,6/3,,
7,7,8,8,1,1,2,2,
1,1,{24}2,3,4,{12}1x/5x,1x/5x,8x/4x,
{16}7x/3x,,2,,7/3,,6-3[8:1],4,,4,6,,A1/D2f/A2,
E

Re:MASTER


名前:
コメント:

タグ:

+ タグ編集
  • タグ:
最終更新:2026年04月01日 21:38