| アーティスト |
高瀬一矢 feat. R.I.N.A |
BASIC
ADVANCED
EXPERT
MASTER
(142)
{1},
{1}4h[4:7]/5<3[4:5],
{1},
{1}3h[4:7]/4<2[4:5],
{1},
{4}2x/3x<7[2:1],2,2,2,
{4}1x/2x>7[2:1],1,1,1,
{8}8x/1x>7[2:1],8,8,8,8,8,8,8,
{16}8,8,7,7,6,6,5,5,4,4,3,3,2,2,1,1,
{16}C1/B4/B5,,,,,,,,,,E7f,E3f,E1f,,,,
{16}3,,4,4,,3/5,3/5,,6h[16:3],,,5,,,7/8,,
{16}6,,5,5,,4/6,4/6,,3h[16:3],,,4,,,1/2,,
{16}3,,4,4,,3/5,3/5,,6h[16:3],,,5,,,1/7,,
{16}2/8,,3,3/4,,6,5/6,,2/7,7/2-6[32:3],,1/8,,2bx/7bx,,,
{16}8,,1,1,,2/8,2/8,,7h[16:3],,,8,,,4/6,,
{16}7,,8,8,,1/7,1/7,,2h[16:3],,,1,,,3/5,,
{16}2,,1,1,,2/8,2/8,,7h[16:3],,,8,,,3/6,,
{8}7-4[8:1],7,3q5[16:5],3,6h[4:1],,,,
{16}7/5>3[32:3],,,6,,,6,,3/5<7[32:3],,,4,,,4,,
{16},,6,6,5,,4/7,,5-8[32:3]/6-8[32:3],,5/6,,,,,,
{16},,3,4,,4,3,,4h[16:3],,,2h[16:3],,,1,,
{16},,3,3,4,,2/5,,3/4,,3,,2/4,,1,,
{8}5b/1b<6[4:1],,6<4[2:1],6bx,,,5,,
{8}5,,6,5h[8:1]/6h[8:1],,6,3/7,8,
{4}4b/8bqq3[2:1],4,4,4,
{8}2/4,1,2/8,7,6/8,5,4/5,,
{16}7/5>3[32:3],5/7,,6,,,6,,3bx/5bx<7b[32:3],3bx/5bx,,4bx,,,4bx,,
{16},,6,6,5,,4/7,,5-1[32:3]/6-1[32:3],,5/6,,,,,,
{16},,3,3,,2/4,2/4,,4h[16:3],,,3h[16:3],,,1,,
{16},,3h[4:1],,,4,4,,3/4,,2/5,,1/7,,6/8,,
{8}5b/1b<6[4:1],,6<4[2:1],6bx,,,5,,
{8}5,,6,5h[8:1]/6h[8:1],,4/7,2/8,1/3,
{8}4b/8bv3[4:1],,3>5[2:1],3bx,,,4,,
{8}3,3h[8:1],4,4h[8:1],5,5h[8:1],6,,
{16}7/5pp4[4:1],,,8,,,1h[8:3],,,,2,,2b,,,,
{16}2/4qq5[4:1],,,1,,,8h[8:3],,,,7,,7b,,,,
{8}5/7,6,2/4,3,5/8,6,1/4,3,
{16}7,7,5,5,4,4,2,2,C1f,,,,,,,,
{8}8b/1b-5[32:3],,1/6-2[32:3],7,6/4-8[32:3],5,4/7,6,
{8}2/4,3/5-2[32:3],4/6,7x/5x-8[32:3],,1bx/5bx,,2,
{8}2/4,3/5v2[32:3],4/6,7x/5xv8[32:3],,1bx/5bx,,3,
{16}1h[8:1]/3h[8:1],,,1h[8:1]/8h[8:1],,,6/8,,5h[8:1]/6h[8:1],,,3h[8:1]/4h[8:1],,,2/7,,
{8}8b-4[32:3],,8/3-7[32:3],2,3/5-1[32:3],4,2/5,3,
{8}5/7,6/4-7b[32:3],3/5,2x/4x-1b[32:3],,4bx/8bx,,7,
{8}5/7,6/4v7b[32:3],3/5,2x/4xv1b[32:3],,4bx/8bx,,6,
{16}6h[8:1]/8h[8:1],,,1h[8:1]/8h[8:1],,,1/3,,2h[8:1]/4h[8:1],,,5h[8:1]/7h[8:1],,,3/6,,
{8}5,6,B5f/7>2[4:1],,2>7[8:3],B3f,,7>4[8:3],
{8}B8f,,4<1[8:3],C1f,,1,2,3,
{8}3xh[8:3],1,8,7,7xh[8:3],5,4,3,
{32}2x,,2,,4,,4,,6,,6,,8,,8,,E2,E3,E4,E5,E6,E7,E8,E1,D2,D3,D4,D5,D6,D7,D8,D1,
{1}C1f/D2,
{4}6h[1:1],5,,5,
{4}3h[1:1],4,,4,
{2}6<8[4:1],2>4[4:1],
{4}6p4[16:9],E2,,E3,
{4}3q5[16:9],E8,,E7,
{8}7h[8:3],,,5h[8:3],,,4h[4:1],,
{8}2xh[8:5],,,6xh[4:1],,,1x>4[2:1]s8[2:1]/7x<4b[2:1]z8[2:1],,
{1}1b/7b,
{32},,,,,,,,,,,,,,,,1,2,3,4,5,6,7,8,1,2,3,4,5,6,7,8,
{8}5b/1b-4[32:3],,1/6-2[32:3],7,6/5-1[32:3],4,5/7,6,
{8}2/4,3/5-2[32:3],4/6,7x/5x-8[8:1]-6[16:1],,1bx/5bx,,2,
{16}2/4,,3/5v2[32:3],,4/6,,7x/5xv8[8:1]<6[16:1],,,,1bx/5bx,,,,2,3,
{16}4h[8:1]/7h[8:1],,,1h[8:1]/2h[8:1],,,3/8,,2h[8:1]/5h[8:1],,,6h[8:1]/7h[8:1],,,1/2,,
{8}4b/8b-5[32:3],,8/3-7[32:3],2,3/4-8[32:3],5,2/4,3,
{8}5/7,6/4-7b[32:3],3/5,2x/4x-1b[8:1]-3[16:1],,4bx/8bx,,7,
{16}5/7,,6/4v7b[32:3],,3/5,,2x/4xv1b[8:1]>3[16:1],,,,4bx/8bx,,,,7,6,
{16}2h[8:1]/5h[8:1],,,7h[8:1]/8h[8:1],,,1/6,,4h[8:1]/7h[8:1],,,2h[8:1]/3h[8:1],,,7/8,,
{8}5,6,E4f/7p2[4:1],,2<1[16:1]p4[16:5],E2f,,4>3[16:1]p6[16:5],
{8}E4f,,6>5[16:1]p8[16:5],E6f,,3x,2x,1x,
{8}1xh[8:3],8,7,6,5xh[8:3],4,3,2,
{32}1x,,1,,3,,3,,5,,5,,7,,7,,1,2,3,4,5,6,7,8,1b/5b,,,,,,,,
{16}3,,3,2/4,,3,2/4,,3h[8:1],,,2h[8:1]/8h[8:1],,,1/7,,
{16}6,,6,5/7,,6,5/7,,6h[8:1],,,1h[8:1]/7h[8:1],,,2/8,,
{16}3,,3,2/4,,3,2/4,,3h[8:1],,,2h[8:1]/8h[8:1],,,1/7,,
{16}4/5,,6,5b/6b,,3,3b/4b,,1/8,8/1-5b[32:3],,2/7,,1bx/5bx,,,
{16}4/6,,4/6,3/7,,4/6,3/7,,4h[8:1]/6h[8:1],,,1h[8:1]/2h[8:1],,,4/8,,
{16}3/5,,3/5,2/6,,3/5,2/6,,3h[8:1]/5h[8:1],,,7h[8:1]/8h[8:1],,,1/5,,
{16}3/7,,3/7,4/8,,3/7,4/8,,2h[8:1]/6h[8:1],,,4h[8:1]/8h[8:1],,,2/7,,
{8}8-4[8:1],8,3q5[16:5],3,7<5[16:1],7,,,
{8}2b/4b,1bpp4[8:5]/8bqq5[8:5],5b/7b,1b/8b,,,,,
{1},
{1},
{1},
E
Re:MASTER
最終更新:2026年04月05日 13:53