BASIC
ADVANCED
EXPERT
MASTER
(135)
{1},
{16}3/4,,,,2h[16:5]/5,,,,,4,3,,2/5h[4:1],,,,
{16}3,,3,4,,4/6,,7,7,5,,3,3,4,,6,
{16}5/6,,,,4/7h[16:5],,,,,5,6,,4/7,,3/6,,
{8}4/5,B2/E3,4/5,B7/E7,4/5,B3/E3,4/5,,
{16}2-5[8:1]/6,,,,8,,,,4h[8:1]/6h[8:1],,,4h[8:1]/6h[8:1],,,3/7,,
{16}3/7,,6,5,,3/5,,2,2,4,,6,6,5,,2,
{16}2-5[8:1]/5,,,,8,,,,4h[8:1]/6h[8:1],,,4h[8:1]/6h[8:1],,,4/6,,
{16}2,4,2,,7,5,7,,2,4,2,,8b,,1b,,
{16}4/7,,,,B5/B6/E7,,,,3h[8:1]/4h[8:1],,,2h[8:1]/5h[8:1],,,3/4,,
{16}2/5,,,,B3/E3/B4,,,,5h[8:1]/6h[8:1],,,4h[8:1]/7h[8:1],,,5/6,,
{16}4/7,,,,B5/B6/E7,,,,3h[8:1]/4h[8:1],,,2h[8:1]/5h[8:1],,,3/4,,
{8}2/5,,B3/E3/B4,,5/6,,B3/E3/E4,B6/E6/E7,
{16}4b/5b,,,,B3/E4/8,,,,B6/E6/1h[16:3],,,4,,4,3,,
{16}2/5,,,,B6/E6/1,,,,B3/E4/8h[16:3],,,5,,5,6,,
{16}4/7,,2,1,,3,4,,2/5,,7,8,,6,5,,
{8}C1f/8b,,,,4h[16:1]/5h[16:1],3h[16:1]/4h[16:1],2/5,1b,
{16}7/8,,6,5,,4/7-4[8:1],,2,,8,8,,1,8,2,,
{16}1/2,,3,4,,2-5[8:1]/5,,7,,1,1,,8h[8:1],,1b,,
{16}7/8,,6,5,,4/7-4[8:1],,2,,8,8,,2,,3/7,,
{16}4/8,,6x,6,5,7x,4,8x,8-3[8:1]*-5[8:1],,1x/7x,,8b,,,,
{16}1/2,,3,4,,2-5[8:1]/5,,7,,1,1,,8,1,7,,
{16}7/8,,6,5,,4/7-4[8:1],,2,,8,8,,2h[8:1],,8b,,
{16}1/2,,3,4,,7,8,,6,5,,3,3,4,2,,
{16}8h[16:5],,6,6,,1h[4:1],,3,,8,8,,2/7b,,4b/5,,
{16}3/7,,2<7[8:1]/6,,,4,,4,,,5-7[8:1],,,3,,,
{16}2,,3/7>2[8:1],,,5,,5,,,4-2[8:1],,,6,,,
{16}7,,2<7[8:1]/6,,,4,,4,,,5,,,4/6,,,
{16}3/8,,6,5,,4/7,,3,4-1[8:1],,2/5,,6b,,,,
{16}3/7-1[8:1],,4,4,7,,,,5-3[8:1],,8,8,5,,,,
{16}7-1[8:1],,5,5,7,,6,,6,,4/8,,7,5,6,5,
{16}6,,3,4,,2,1,,3/5,,6,5,,7,8,,
{32}8,7,6,5,4,3,2,1,8,,,,2,,4,,3-1[8:1],,,,8,,8,,3b,,,,,,,,
{4}5<7[8:1],B7/B8,4>2[8:1],B1/B2,
{4}5<7[8:1],B7/B8,4>2[8:1],B1/B2,
{4}8<5[8:1],B5/B6,4>1[8:1],B1/B2,
{48}7h[16:3],,,,,,,,,6h[16:3],,,,,,,,,5,,,,,,4,,5,,4,,5,,4,,5,,4>6[2:1],,,,,,3,,,,,,
{8}C1f,,,,,,,6,
{4}6h[4:1],1-5[8:1],8-6[8:1],2-4[8:1],
{2}1x,3h[8:3],
{16}4h[8:1]/5h[8:1],,,3h[8:1]/4h[8:1],,,2/3,,2,2,2,2,2<4[4:1],2,2,2,
{16}2,,,,,,,,4h[8:1]/6h[8:1],,,5h[8:1]/7h[8:1],,,5/7,,
{16}8-5[8:1],,,,6,,,,4h[8:1]/6h[8:1],,,5h[8:1]/7h[8:1],,,5/7,,
{16}8-5[8:1],,,,6,,,,4h[8:1]/6h[8:1],,,5h[8:1]/7h[8:1],,,5/7,,
{16}4/8,,6,5,,4/7,,3,3,4,,3/5,,2,2/4,,
{16}1-4[8:1],,,,3,,,,3h[8:1]/5h[8:1],,,2h[8:1]/4h[8:1],,,2/4,,
{16}1-4[8:1],,,,3,,,,3h[8:1]/5h[8:1],,,2h[8:1]/4h[8:1],,,2/4,,
{16}1-4[8:1],,,,3,,,,3h[8:1]/5h[8:1],,,2h[8:1]/4h[8:1],,,2/4,,
{16}1/5,,6,5,,3,4,2,B5/E5/E6,,,,6<2[4:1],,,,
{16}2>6[4:1],,,,6,,,,1x,,,4x,5x<1[4:1],,5x,,
{16}1>5[4:1],,,,5,,,,7,,,1,8<4[4:1],,8,,
{16}4>8[4:1],,,,8,,,,6,,,4,5-8[8:1],,5,,
{16}4-1[8:1],,,,6,,,8,1,1,,6,5h[16:1]/6h[16:1],,4h[16:1]/5h[16:1],,
{16}3b/4b,,,,B6/E6/1,,,,B3/E4/8h[16:3],,,5,,5,6,,
{16}4/7,,,,B3/E4/8,,,,B6/E6/1h[16:3],,,4,,4,3,,
{16}2/5,,7,8,,6,5,,4/7,,2,1,,3,4,,
{8}C1f/1b,,2x>5[8:1]/6x<1[8:1],,2/6,,4h[8:1],8b,
{16}1/2,,3,4,,2-6[8:1]/5,,1/6,,8,8,,7,5,6,,
{16}7/8,,6,5,,4/7-3[8:1],,5/8,,4,4,,5h[8:1],,8b,,
{16}1/2,,3,4,,2-6[8:1]/5,,1/6,,8,8,,7,5,6,,
{16}2-6[8:1]/5,,4,4,2-4[8:1],5,,5,2q6[8:1]*v5[8:1],,1,,2b,,,,
{16}7/8,,6,5,,4/7-3[8:1],,3/8,,1,1,,2,4,3,,
{16}1/2,,3,4,,2-6[8:1]/5,,1/4,,5,5,,4h[8:1],,1b,,
{16}7/8,,6,5,,2,1,,3,4,,6,6,5,7,,
{16}1h[16:5],,3,3,,8h[4:1],,6,,1,1,,2/7b,,2b/7,,
{8}4/5,2<7[8:1]/7,1,2/6>3[8:1],5,2<7[8:1]/6,1,2/6>3[8:1],
{16}5,,2/6,,1,,1/7,,3,5,4,6,5,,4/8b<5[8:1],,
{8}7,4>1[8:1]/8,3,4/8<5[8:1],7,4/8,3,3/6,
{16}7,5,6,2,4,3,7,8,6,5,1,2,4,3,2b/5,,
{16}4/6,,7,7,5,5,6,6,3,3,4,2,6,6,5,7,
{32}1x,2x,3x,4x,8x,,8,,2,,2,,6,,6,,3,,3h[8:1],,,,1,,1,,2,,8b,,,,
{16}3,4,2,7,5,6,2,4,3,6,5,7,1,1,8,8,
{16}3,3,4,3,3,5,2,2,6,2,2,7,1>8[8:5],1,8,,
{1}C1f,
{16}3/7,,2/6>3[8:1],,,1,,1,,,2-8[8:1],,,4,,,
{16}6,,3<6[8:1]/7,,,8,,8,,,7-1[8:1],,,5,,,
{16}3,,3,4,,2/5,,6,5-8[8:1],,4/7,,3b,,,,
{16}4/5h[8:1],,2h[8:1],,4,4,3,4,3,4,2,4,3,4,2,4,
{16}3,5,4,,8h[8:1],,1,1,5h[8:1],,3,3,2h[8:1]/6h[8:1],,,,
{16}1/7,,2,4,3h[8:1],,7,5,6,5,6,5h[8:1],,8,8h[8:1],,
{16}1,1,2,2,3,3,4,4,5-8[8:1],5,6,,1b,,,,
{4}3/7p4[2:1],B1/E1,,E1/B8,
{16}2h[16:3],,,4,4,3,,2/6,2-7[8:1]/6-3[8:1],,,,2/6,,,,
{4}2q5[2:1]/6,E1/B8,,B1/E1,
{32}7h[16:3],,,,,,5,,5,,6,,6h[8:1],,,,4,3,2,1,8,7,6,5,4x,,,,4x,,,,
{4}2q5[2:1]/6,E1/B8,,B1/E1,
{16}2h[16:3],,,4,4,3,,2/6,2>5[8:1]/6<1[8:1],,,,2/6,,,,
{8}5xh[16:1]/8xh[16:1],5h[16:1]/8h[16:1],4h[16:1]/7h[16:1],3h[16:1]/6h[16:1],2h[16:1]/5h[16:1],1h[16:1]/4h[16:1],2h[16:1]/5h[16:1],3h[16:1]/6h[16:1],
{16}4h[16:1]/7h[16:1],,4h[16:1]/7h[16:1],,5h[16:1]/7h[16:1],,5h[16:1]/7h[16:1],,7,5,7,5,6/7-3[16:1],6/7,6/7,6/7,
{1}6/7,
{1},
{1},
{1},
E
Re:MASTER
最終更新:2026年04月11日 18:40