BASIC
ADVANCED
EXPERT
(168)
{1}3xq6[1:1],
{2},{8}7x,7x,{4}5x,
{2}4h[4:3]/6h[16:7],{4},5qq5[2:1]*pp5[2:1],
{2},{4},5bx/6bx,
{8}7,7,{4}8,{8}2,2,{4}1,
{4}3,34,{2}3h[4:1]/4h[4:1],
{8}2,2,{4}1,{8}7,7,{4}8,
{4}6,6,5hx[8:1]/6hx[8:1],5hx[8:1]/6hx[8:1],
{8}7,7,{4}8,{8}2,2,{4}1,
{4}38,7,56,3>5[2:1]/8h[1:1],
{1},
{4}B7,E6,B2,E4,
{4}3h[8:3],{8},4,{4}4,45,
{4}6h[8:3],{8},5,{4}5,45,
{4}3h[4:3],{8},4,{2}4h[4:1],
{2}B4/B5/E5,{4}6,7,
{4}78,12,3h[8:3],{8},4,
{1}4qq2[4:1]*pp6[4:1],
{4}17,28,{2}2h[4:1]/8h[4:1],
{4}57,{8}24,24,,18,{4}18,
{4}2b/4b,5b/7b,{2}5/6qq5[4:3]*V85[4:3],
{2},{4},56,
{4}7b/8b,1b/2b,{2}3pp4[4:3]*V14[4:3],
{2},{4},34,
{4}1b,7b/8b,6,6pp1[4:3]/5p2[4:3],
{1},
{4}1x/2x,3x/4x,5x/6x,7x/8x,
{8},46,46,,{2}3b/7b,
{4}8,17,{8}3,3,{4}1,
{4}1h[4:3]/2,2pp4[4:1],{2},
{4}8,17,{8}6,6,{4}8,
{4}7,5/6-1[4:1],{2},
{4}3h[4:1],4h[4:1],5h[4:1],6h[4:1],
{4}5,57,{8}2,2,{4}4,
{4}7,56,2,3q5[2:1]/4,
{2},{4},5x/6x,
{4}7xb/8xb,1xb/2xb,1xb/6xb,3>8[4:1]/7<4[4:1],
{2},{4}26,78,
{4}5,12,4,78,
{4}5,12,12,18,
{4}7xb/8xb,1xb/2xb,3xb/5xb,4>1[4:1]*<7[4:1],
{2},B8f/E1/E8,
{4}5/6h[4:1],2,3h[4:1]/4,7,
{4}56,56,7x/8x,7x/8x,
{4}12,78,12,3w7[4:1],
{2},{4}78,78,
{4}16,38,16,38,
{4}56,5>1[8:3]/6pp8[8:3],{2},
{4},{8}6,6,2,2,{4}8,
{16}1bx/7bx,,,2bx/6bx,,,3bx/5bx,,{8},5x/7x,{4}5x/7x,
{2}4x-1[8:1]/8x-5[8:1],1x>4[8:1]/5x<8[8:1],
{4}1,47,78,2/5qq5[2:1]*pp5[2:1],
{2},{4},5x/6x,
{16}78,,,18,,,1/2-7b[8:1],,{2},
{2}6bh[4:7],{4}E5,E6,
{2}8b,{4}E8,E1,
{2}2bh[4:7],{4}B7,B1,
{2}3b,{4}B4,E6,
{4}3,3qq5[2:1],{2},
{2}6-8[8:1],1-5[8:1]*-4[8:1],
{2}5hx[4:1]/6hx[4:1],{8}7,7,{4}8,
{2}3h[4:1]/4h[4:1],{8}1x/2x,1x/2x,{4}1x/2x,
{4}2bx/4bx,4bx/8bx,1bx/6bx,3bx/4bx,
{4}4bx/6bx,7bx/8bx,4bx/8bx,3bx/6bx,
{4}2,2<6v4<5[8:5],{2},
{2},{4}5h[8:1]/6h[8:1],5h[8:1]/6h[8:1],
{4}47,{8}8,8,2,2,4,4,
{8}1,1,{4}6,{16}7x,8x,{8}7x,{4},
{8}6,6,4,4,{4}8,{8}12,12,
{8},{16}3x,4x,{4}3x,56,{8}78,78,
{8},{16}6x,5x,{4}6x,47,47,
{2}6h[2:1],5,
{2}3h[2:1],4,
{2}5h[2:1],4,
{2}4h[4:1]/5h[4:1],45,
{4}2hx[8:1]/8hx[8:1],1hx[8:1]/7hx[8:1],{2}6pp1[8:5]/2pp5[8:5],
{2},{4},8xv5[8:1]/2xv5[8:1],
{4},6xv7[4:1]/4xv3[4:1],{2},
{4}1x/2x,2x-6[4:1]/1x-5[4:1],{2},
{4}6,6pp2[4:3],{2},
{2},{4},1x/8x,
{4}1b/2b,7b/8b,3b/5b,2<7[4:1]/6>3[4:1],
{2},{4}15,78,
{4}4,12,5,78,
{4}4,1x/2x,1x/2x,78,
{4}7b/8b,1b/2b,4b/5b,6pp4b[2:1]/3qq5b[2:1],
{2},{4},{8}6,6,
{8}1,1,4,4,{4}3,{8}24,24,
{8},57,{4}57,7x/8x,7bx/8bx,
{4}12,78,12,3bw7b[4:1],
{2},{4}78,78,
{4}16,38,16,38,
{4}E5,6>3b[8:3]*v3b[8:3],{2},
{4},{8}1,1,7,7,{4}8,
{16}7b/8b,,,4b/5b,,,1b/2b,,{8},7,{4}7<5-8[8:3],
{2},1-4[8:1],
{1}7qq4[2:1]/3qq8[2:1],
{2}26,{4}18,18,
{16}38,,,16,,,2-7b[8:1]/7,,{2},
{8}3,3,{4}4,56,{8}34,34,
{8},12,{4}1/2>5[4:1],{2},
{8}6,6,{4}5,34,{8}56,56,
{8},8bx,,12,{4}1hx[8:1]/2hx[8:1],1hx[8:1]/2hx[8:1],
{8}3,3,{4}4,56,34,
{4}45,Chf[4:3],E8,E1,
{2}E2,{4},1x/8x,
{2}7b<4[4:1],1>4b[4:1],
{2}6h[4:3],{4}5,5,
{16}78,,,45,,,1/2-7[8:1],,{2},
{4},6x-3[8:1],
E
MASTER
(168)
{1},
{2},{8}E2,C,{4}E6,
{1}1p8[2:1],
{16}1x/7x,,,2x/8x,,,3x/6x,,{8},45,{4}2b/7b,
{8}12,12,38,{16}2,1,,1,{8}3qq5[8:3],4,4b,
{4},8<5[8:1],48,3x/4x,
{8}12,18,78,{16}7,8,,8,{8}6pp4[8:3],5,5b,
{4},1>4[8:1],15,5x/6x,
{8}34,2,15,{16}6,8,,8,{8}7qq4[8:3],5,5b,
{4},3>8[8:1],5,1/6-1[8:1],
{8}2-6[8:1],2,5-8[8:1],5,1,1,{4}37,
{16}1x,2x,3x,4x,7x,6x,5x,4x,2x,3x,4x,5x,{4}C,
{4}3h[8:3],{8},4,{4}4,E3/E4,
{4}5h[8:3],{8},4,{4}6,E5/E6,
{4}7h[8:3],{8},5,{4}5x,46,
{4}B4/B5/E5,{8},3,{4}3,4>1[4:1]/8,
{4}1<6[4:1],6>3[4:1],3>8[4:1],8pp4[2:1],
{4}6b,{8}5,5,6,7h[8:3],,5,
{4}5-2[8:1],5<4[4:1],{2}15,
{8}3h[8:1],1h[8:1],8h[8:1],6h[4:1],,1,{4}1b,
{8}2x/8x,45,{4}2b/8b,45,4-7[8:1]/5-7[8:1],
{4}4-2[8:1]/5-2[8:1],4-7[8:1]/5-7[8:1],4-2[8:1]/5-2[8:1],45,
{8}1x/7x,45,{4}1b/7b,45,4-7[8:1]/5-7[8:1],
{4}4-2[8:1]/5-2[8:1],4-7[8:1]/5-7[8:1],4-2[8:1]/5-2[8:1],45,
{8}17,2,{4}4b-8[8:1]/6b,5-1[8:1],3-8[8:1],
{4}4<7[8:1],8v5[8:1]*v3[8:1],,26,
{8}45,3,12,8,17,6,45,27,
{8},3-7[8:1],6-2[8:1],3,{4}6,45,
{8}3,3,4q1[4:1],4,2,2,{4}3,
{4}2<7b[4:1],6>3[4:1],,1,
{8}2,2,4<8[4:1],4,3,3,{4}4,
{4}57,5w1[8:1],{2},
{4}3h[8:1]/4h[8:1],3h[8:1]/4h[8:1],5h[8:1]/6h[8:1],5h[8:1]/6h[8:1],
{4}1h[8:1]/3h[8:1],1h[8:1]/3h[8:1],6h[8:1]/8h[8:1],6h[8:1]/8h[8:1],
{8}7,6,5,4,3,2,{4}1/8q1[2:1],
{2}3h[4:3],{4},2v7[8:1],
{4}2x/3>1[8:1],3x/4,B3/B5/E4f/E5,{8}26,8,
{4}3-6[8:1]/7-2[8:1],37,48,{8}34,2,
{8}12,8,17,6,57,8,12,3,
{4}4-2[8:1]/6-1[8:1],4x/6x,3h[4:1]/8,2v7[8:1],
{4}2x/3>1[8:1],3x/4,B3/B5/E4f/E5,{8}12,78,
{4}5xqq5[4:1]*pp5[4:1]/6x,5,,{8}1,2,
{8}3>8[8:1],3,7<4[8:1],7,1-5[8:1],1,{4}8q2[4:1],
{4}2>8[4:1],4x,C,3b/7b,
{8}26,7,4/8h[8:1],2,1h[8:1]/5,7,48,2,
{8}1/7-2[8:1],8,{4}3-8b[8:1]*-7b[8:1],3b,16,
{8}3h[8:1]/5,1,4/6h[8:1],8,3h[8:1]/5,1,46,46,
{8},3x/8xV64-2[8:3],,2,{4}2>7b[4:1],1b,
{4},{8}12,3,46,5,68,7,
{16}1b/8b,,,5b/7b,,,2b/4b,,{8},2,3/5>1[4:1],46,
{4}7b,4<8[4:1],2b,5,
{8}57,6,17,8,13,2,6pp4[2:1]/3qq5[2:1],45,
{2},{4},36,
{16}78,,,12,,,3b/7b,,{8},A6/D6/D7/E6f/E7,{4}A3/A4/D4/E4f,
{4}2/5qq5[4:1],2/5pp6[4:1],{8}1,1,{4}1,
{4}7-3[8:1]/8,1,{8}2/5-1[8:1],2,{4}2,
{4}7qq1[2:1],2pp8[2:1],{2},
{4}7>3[4:1],3v5[4:1],4,4,
{16}6,5,{8}6,{16}3,4,{8}3,{32}E3,E4,E5,E6,E7,E8,E1,E2,{4}Cf,
{8}12,78,{4}5-1[8:1]/6-8[8:1],56,27,
{8}8,1,{4}2h[2:1]/4pp4[4:1],{2}4-1[8:1],
{8}8,7,{4}5-1[8:1]/6h[4:1],5,2b/6b,
{16}7,5,7,5,8,5,{8}8,48,3,25,6,
{8}78,1,28,{16}3,1,,6,{8}8,{4}15,
{16}3,4,{8}3,{16}6,5,{8}6,{16}2,1,{8}2,{16}7,8,{8}7,
{8}13,2,68,7,{4}1h[8:1]/2h[8:1],7h[8:1]/8h[8:1],
{4}16,{16}4x,3x,2x,1x,7x,6x,5x,4x,1x,2x,3x,4x,
{8}5x/6x,7,34,2,{16}7,8,{8}6h[4:1],,5,
{8}7h[8:1],4h[8:1],8h[8:1],3h[8:1],1h[8:1],2h[8:5],,4,
{8},{32}4x,5x,6x,7x,{4}8x,{8}13,13,48,5/7h[8:3],
{8},{32}5x,4x,3x,2x,{4}1xv4[8:1]*-6[8:1],1x,3b/7b,
{2}6>3[2:1],C,
{2}3<6[2:1],C,
{2}7V53[2:1],B5/C,
{2}2-6[4:1],{4}C,1b/8b,
{4}26,6q3[4:1]/2q7[4:1],{2},
{2}5V38[4:1]*v8[4:1],{4},7v4[8:1]/1v4[8:1],
{2}1V37-5[4:1],{4},2v4[8:1]/6<2[8:1],
{4},{8}3x/5x,5x-8[8:1]/3x-6[8:1],,3x/5x,{4},
{16}4,6,4,6,3,5,3,5,2,6,2,6,1,7,2,8q1[16:5],
{2}3h[4:3],{4},2-7>8-4[8:3],
{4}3b-1[8:1],3b,B3/B5/E4/E5f,{8}1,7,
{4}2-5[8:1]/6-1[8:1],26,37,{8}24,1,
{8}14,2,36,7,58,7,36,2,
{4}4-8[8:1]/1-5[8:1],14,3h[4:1]/7,2-7>8-4b[8:3],
{4}3b-1[8:1],3b,B3/B5/E4f/E5,{8}17,6,
{4}3x/4xqq4[4:1]*pp4[4:1],4,,{8}8,7,
{8}6>3[8:1],6,2<7[8:1],2,5-1[8:1],5,{4}2p8b[4:1],
{4}8<1b[4:1],5,Cf,2b/6b,
{8}15,7,4/8h[8:1],2,1h[8:1]/5,7,4/8h[8:1],2,
{8}1/7>2[8:1],56,{4}3-8b[8:1]*-7b[8:1],A3f,16,
{8}3h[8:1]/5,1,4/6h[8:1],8,3h[8:1]/5,1,46,46,
{8},2x>7[8:3]/8x,,7,{4}7q3b[4:1]*p3b[4:1],A7f,
{4},{8}12,3,46,5,67,8,
{16}1b/3b,,,6b/8b,,,3b/5b,,{8},2,3p5[4:1]/4,5,
{4}5,4-8[8:1],3b/4b,17,
{8}24,3,28,1,68,7,6pp4[2:1]/3qq5[2:1],45,
{2},{4},2x/7x,
{16}68,,,13,,,27,,{8},{16}1,8,{4}2b/7b,
{8}68,5,34,{16}2,1,,7,{8}8>6[8:3],6,6b,
{4},7p2[4:1],78,1,
{8}13,4,56,{16}7,8,,2,{8}1<3[8:3],3,3b,
{4},2v8-6[4:1],24,4,
{8}56,7,18,{16}2,1,,3,{8}4<2[8:3],2,2b,
{4},4-6[8:1]*-2[8:1],4-8[8:1],4w8b[8:1],
{32},B4,Cf,B1/B7/B8,{8},{4},26,{8}17,17,
{8},3h[8:1],1h[8:1],2,1bx/2bx,3b/4b,5b/6b,7b/8b,
{1}1p8[2:1]/8<1[2:1],
{16}78,,,24,,,57,,{8},{24}4b/5b,3x/6x,2x/7x,{4}1hx[256:219]/8x,
(208)
{2},6-3[8:1],
E
Re:MASTER
最終更新:2026年01月12日 22:12