BASIC
ADVANCED
EXPERT
(176)
{2}5hx[4:5],{4},{12},,4hx[4:8],
{1},
{1}5hx[12:11],
{2},{4},45,
{4}3x,3/4<6[4:1],{2},
{2}5,4,
{4}3,3/4<6[4:1],{2},
{2}5,4h[4:1]/6h[4:1],
{4}4b/6b,3,12,12,
{4}38,7,56,56,
{4}78,2,12,12,
{4}7h[4:1],8,2h[4:1],1,
{4}3b/8b,7,78,78,
{4}16,2,34,34,
{2}1h[4:1]/6h[4:1],3h[4:1]/8h[4:1],
{4}56,5bx/6bxp3[1:1],{2},
{1},
{4}2h[8:3],{8},4h[8:3],{4},3h[8:5],
{4},{8},4,{4}4,45,
{4}6h[8:3],{8},5h[8:3],{4},7h[4:3],
{2},{4}5,46,
{4}35,{8}2,2h[4:1],,8,{4}8xp3[8:3],
{4},{8},1x,,2x/8x,{4}2x/8x,
{4}7h[4:1],{8}5,5,,24,{4}24,
{4}1b,1,28,28,
{4}3bx,{8}2,2,{4}4,56,
{4}7h[4:1],8q4[4:1],{2},
{4}6bx,{8}7,7,{4}5,34,
{4}2h[4:1],1p5[4:1],{2},
{2}3>8[4:1],7<4[4:1],
{2}2-6[4:1],{4}7,7,
{4}1h[4:1]/6h[4:1],{8},2h[4:1]/7h[4:1],{4},3b/8b,
{4},56,78,12,
{8}38,38,{4}3h[2:1]/8,,4,
{8}16,16,{4}1/6h[2:1],,5,
{8}57,57,{4}5/7h[2:1],,8,
{8}12,12,{4}1/2>5[4:1],{2},
{4}E6,E7,E8,C,
{4}E4,E3,{2}B1f/E2,
{4}8,1b/7b,{8}3,3,{4}4,
{4}56,7<4[4:1]/8p3[4:1],{2},
{4}1,28,{8}7,7,{4}5,
{2}4>8[4:1]/5pp7[4:1],{4},5x/6x,
{4}7h[4:1],5h[4:1],4h[4:1],2,
{4}2h[4:1],4h[4:1],5h[4:1],7,
{4}56,56,78,12,
{4}34,34,{2}1b/6b,
{4}2h[4:1],4,6h[4:1],5,
{4}3h[4:1],4,18,18,
{4}7h[4:1],5,2h[4:1],1,
{4}7h[4:1],8,56,56,
{2}4>2[4:1]/7<5[4:1],{4},25,
{2}2>4[4:1]/5<7[4:1],{4},47,
{4}6h[4:1],8h[4:1],1h[4:1],3,
{1}3qq8[4:7]/4h[1:11],
{1},
{1},
{1},
{2}E1,B2/E2,
{2}E5,B3/E4,
{2}E1,B2/E2,
{2}5x,5x,
{2}E4,B5/E5,
{2}E3,B8/E1,
{2}E4,B5/E5,
{1}Ch[2:1],
{4}1,2,{2}3h[4:1]/4h[4:1],
{4}3,4,{2}5h[4:1]/6h[4:1],
{2}6<1[2:1],{4},2,
{2}2-6[2:1],{4},8,
{4}8,7,{2}5h[4:1]/6h[4:1],
{4}6,5,{2}3h[4:1]/4h[4:1],
{1}3>6b[4:3]/4,
{4}5,5,{2}4/6h[2:5],
{2}5,5,
{4}E6,E5,{2}E4,
{2}2h[1:2],4,
{4}E3,E2,{2}E1,
{2}8h[1:1],B5/B6,
{2}1h[1:2],B3/B4,
{1}5>6b[4:5],
{1},
{2}2bh[2:1]/7b,{4}1,1p8[2:1]/2,
{1},
{2}7h[2:1],{4}8,7<2b[2:1]/8p1b[2:1],
{1},
{4}12,12,34,34,
{4}56,56,78,78,
{2}1>4[4:1]/6,5-1[4:1],
{2}3<6[4:1],{4}7,78,
{4}1h[4:1]/6b,4,3/8h[4:1],5,
{4}2h[4:1]/6,4,3/7h[4:1],5,
{4}2h[4:1]/4,1,5/7h[4:1],8,
{4}78,78,16,25,
{2}3<6[4:1],7>2[4:1],
{2}3<6[4:1],{4}7,7,
{4}78,24,12,57,
{4}56,B4/B5/B6/Cf,,18,
{8}7b,7,{4}8,57,45,
{4}24,4-8[4:1]/2>5[4:1],{2},
{8}7,7,{4}5,24,2<7[4:1]/4pp6[4:1],
{2},1b/5b,
{8}2,2,{4}12,34,56,
{8}7,7,{4}78,16,34,
{4}2h[4:1],4h[4:1],6h[4:1],8w4b[4:1],
{2},2bx/6bx,
{12}2,,2,{4}4,35,46,
{12}7,,7,{4}5,46,35,
{12}2,,2,{4}1,18,18,
{12}7,,7,{4}8,18,18,
{4}3>8[4:1],4<7[4:1],{2},
{4}2>5[4:1],1<6[4:1],{2},
{4}5x/6x,78,12,34,
{4}34,1bh[4:11]/6bp1<8p3[2:3],{2},
{1},
{1},
{2}4h[12:11],{12},,2x-7[4:1],
E
MASTER
(176)
{2}6>4[4:1],{4}3h[12:5],{12},,4hx[3:1],
{4},E3,{2},
{2}3<5[4:1],{4}6,{12}6h[1:1],,5hx[6:5],
{1},
{2}7<5[4:1],4,
{2}2>4[4:1],5,
{2}6>4[4:1],3,
{4}3,4,5,46,
{4}3b/7b,56,{12}7,,5,{4}6,
{4}3,34,{12}2,,4,{4}3,
{4}6,57,{12}8,,5,{4}6,
{4}3,24,{12}1,,4,{4}3,
{4}5x/6x,47,{12}8,,5,{4}6,
{4}34,25,{12}1,,4,{4}3,
{4}56,47,{12}3,,5,{4}4,
{4}3/6pp4>5[2:3],B1/B2/E2f,{2},
{1},
{4}2/A4,{8},1/B5,{4},8bx/E7f,
{2},{8},17,{4}17,
{4}48,{8}7,5,,5,{4}6,
{4}45,2h[8:3],{8},4,{4}34,
{4}15,{8}2,4,,4,{4}3,
{4}45,7h[4:1],5h[4:1],3h[4:1],
{8}1,1,1,1,,28,{4}2>5[4:1]/8,
{4}5<8[4:1],8>3[4:1],3<6[4:1],6,
{4}8x,{8}5,57,,6,{4}56,
{4}8-5[8:1],4,{8}3,3,{4}24,
{4}15,{8}4,24,,3,{4}34,
{4}1-4[8:1],5,{8}6,6,{4}57,
{4}48,{8}7,56,,2,{4}34,
{4}8-4[8:1],3,{8}1,1,{4}28,
{4}5b/7x,{8}3,2x/4b,,18,{4}2b/7b,
{4},A3,E5,A6,
{8}78,78,{4}16,C,E4,
{8}12,12,{4}38,C,E6,
{8}78,78,{4}16,E6,A4,
{8}12,12,{4}38,4h[4:1],6h[4:1],
{4}8>3[8:1],5,1<6[8:1],4,
{4}8,{8}56,{16}2,1,{2}2<3[8:3],
{4},1b/7b,2/6-1[8:1],{8}3,3,
{4}48,1q5[8:1]/2>4[8:1],,7x/8x,
{8}3,5,7,12,{4}3-8[8:1]/8,6<4[4:1],
{4}5x,{8},1,{4}2x/8-5[8:1],4,
{8}3,3,4-8[8:1],4,{4}2-4[8:1],1,
{8}7,7,8,8,{2}7v4[8:1]/1v4[8:1],
{4}56,78,{8}23,2q7[4:1]/3<6[4:1],{4},
{4},{8},{16}8,1,{2}8-4[8:1],
{12}2,,2,4,,4,3,,3,5,,5,
{12}1,,1,2,,2,3,,3,{4}45,
{12}7,,7,5,,5,6,,6,4,,4,
{12}8,,8,7,,7,6,,6,{4}45,
{12}2,,2,4,,4,6,,6,8,,8,
{12}1,,1,7,,7,5,,5,{4}46,
{12}7,,7,5,,5,3,,3,1,,1,
{4}8-3>2-6<7-4[4:7],3hb[2:7],{2},
{1},
{1},
{1},
{12}E8,B7,B6,{4}E6,3,3,
{12}E7,B6,B5,{4}E5,3,4,
{12}E2,B2,B3,{4}E4,6,6,
{12}E3,B3,B4,{4}E5,6,5,
{12}E8,B7,B6,{4}E6,3,3,
{12}E7,B6,B5,{4}E5,3,4,
{12}E2,B2,B3,{4}E4,6,6,
{12}E3,B3,B4,{4}E5,6,5,
{12}7,,7,6,,6,7,,7,6,,6,
{12}7,,7,6,,6,{2}7>2[6:1],
{12}3,,3,2,,2,3,,3,2,,2,
{12}3,,3,2,,2,{2}3<6[6:1],
{12}7,,7,6,,6,8,,8,5,,5,
{12}7,,7,6,,6,{2}8<5[6:1],
{12}2,,2,3,,3,1,,1,4,,4,
{12}2,,2,3,,3,{2}1>4[6:1],
{12}7,,7,5,,5,4,,4,2,,2,
{4}8-6[8:1],5-1[8:1],2-4[8:1],8,
{4}7h[4:1],5h[4:1],7<5[4:1],5>3[4:1],
{4}3>1[4:1],1<7[4:1],7<5[4:1],5,
{12}2,,2,4,,4,5,,5,7,,7,
{4}1-3[8:1],4-8[8:1],7-5[8:1],1,
{4}2h[4:1],4h[4:1],2>4[4:1],4<6[4:1],
{4}6<8[4:1],8>2[4:1],2>4[4:1],4,
{2}Cf,{4},{256}1xpp4[4:3],8bxqq5b[4:3],{128},{64},{32},{16},{8},
{1},
{2}3<6[4:1]/6,7>2[4:1],
{4}3,4>1[4:1]/5<8[4:1],{2},
{8}1,1,7-5[8:1],7,{4}5-1[8:1],3,
{8}8,8,2-4[8:1],2,{4}4-8[8:1],6,
{4}2-8[8:1],6-4[8:1],3-7[8:1],5<4[8:3],
{2}4,2b/6b,
{12}7,,7,5,,5,6,,6,4,,4,
{12}8,,8,7,,7,6,,6,{4}45,
{12}2,,2,4,,4,3,,3,5,,5,
{12}1,,1,2,,2,3,,3,{4}45,
{12}7,,7,5,,5,3,,3,1,,1,
{12}8,,8,2,,2,4,,4,{4}35,
{12}2,,2,4,,4,6,,6,8,,8,
{4}1w5[8:1],1bx,3hx[8:1]/7hx[8:1],{16}4,6,4,6,
{8}3,2,1-5[8:1],8,{4}7<4[8:1],{8}2,2,
{4}1/3-8[8:1]*-7[8:1],3x,5-2[8:1]*-1[8:1],5x,
{8}8,7,56,4,{4}3p6[8:1],5>7[8:3],
{2}Cf,2b/6b,
{8}17,6,5-1[8:1],4,{4}3<6[8:1],8x,
{8}28,3,4-8[8:1],5,{4}6>3[8:1],{8}1x,1,
{4}2-6[8:1]/8,7-3[8:1],1,1>3v5<6[8:3]*<7v5<6[8:3],
{2},A1/B1f/E1/E2,
{12}7hx[6:1],,5,6h[6:1],,4,5h[6:1],,3,4h[6:1],,2,
{12}2hx[6:1],,4,3h[6:1],,5,4h[6:1],,6,5h[6:1],,7,
{12}7hx[6:1],,5,5h[6:1],,4,4h[6:1],,2,2h[6:1],,8,
{4}8-5[8:1],1-4[8:1],8-5[8:1],1,
{12}2hx[6:1],,4,3h[6:1],,5,4h[6:1],,6,5h[6:1],,7,
{12}7hx[6:1],,5,6h[6:1],,4,5h[6:1],,3,4h[6:1],,2,
{12}2hx[6:1],,4,4h[6:1],,5,5h[6:1],,7,7h[6:1],,1,
{4}1-5[8:1],8bh[2:5],{2},
{1},
{4}A6,A5,A4,A3,
{4}2h[6:1]/7h[6:1],{12}27,,36,,,8-4[8:1]/1-5[8:1],,,1x/8x,
E
Re:MASTER
最終更新:2026年01月13日 21:34