アットウィキロゴ

アイアイ傘

アーティスト ハム feat. 雨衣

BPM BASIC ADVANCED EXPERT MASTER Re:MASTER
116 2 6 9+ 12+ -

EXPERT MASTER Re:MASTER
譜面制作者 Luxizhel きょむりん & はっぴー -

BASIC


ADVANCED


EXPERT

(116)
{1},
{1},
{4}6h[4:1],5h[4:1],4h[4:1],3h[4:1],
{4}4h[4:1],5h[4:1],6,56,

{8}7,7,{4}8,{8}2,2,{4}1,
{8}2,2,4,4,{4}3,45,
{8}6,6,{4}5,{8}3,3,{4}4,
{8}2,2,8,8,{4}1,36,

{4}2h[1:1],4,3,3,
{4}E3,E4,E5,E6,
{4}7h[1:1],5,6,6,
{4}E7,E6,E5,E4,
{4}2h[4:3],4x,3,3x,
{4}D3/E3,D4/E4,D5/E5,D6/E6,
{4}7h[2:1],5,5,56,
{8}7,7,{4}8,18,27,

{2}3<6[4:1],{4}7,7,
{2}8p3[4:1],{4}2,2,
{2}1q5[4:1],{4}6,6,
{4}5h[4:1]/7h[4:1],{8},57,{4}57,45,
{4}24,{8}3,3,{4}1,{8}6,6,
{4}8,{8}2,2,{4}8,17,
{4}6h[4:1],5h[4:1],4h[4:1],3,
{4}3h[4:1],4h[4:1],{2}5pp3[4:3],
{2},{4},1x/2x,

{8}12,3,45,6,{4}7bx/8bx,56,
{2}5q2[4:1]/6<1[4:1],{4},34,
{8}34,2,18,7,{4}56,34,
{4}2h[4:1],4h[4:1],5h[4:1],6,
{8}78,6,45,3,{4}1bx/2bx,34,
{2}3v1[4:1]/4V68[4:1],{4},6,
{4}68,3,13,{8}6,6,
{4}57,{8}3,3,{4}24,12,

{2}1bx/2bx-5[4:1],6-1[4:1],
{8}2,2,{4}4,45,{8}7,7,
{2}6>3[4:1]/8,{4}1x,{8}2,2,
{4}12,12,34,56,
{4}7b/8b,78,12,12,
{4}7h[4:1]/8,5,1/2h[4:1],4,
{4}35,26,46,37,
{8}6x,5,4,3,{4}26,3b/5b,

{4}2h[4:5],4,4,3,
{4}3,1,34,56,
{4}7h[4:5],5,5,6,
{4}6,8,56,B3/B4/B5/Ch[4:3]f,
{1},

{2}8x<5[4:1],{4}B4,E3,
{2}1x>4[4:1],{4}B5,E7,
{2}3x>2-8[4:1]/7x<6-4[4:1],{4},1x/5x,
{2}2s6[2:1],,

{4}5x/6x,7b/8b,{8}18,2,{4}34,
{4}3h[4:1],1h[4:1],8h[4:1],6,
{8}56,7,18,2,{4}3b/4b,34,
{4}2h[4:1],4h[4:1],5h[4:1],7x,
{8}7b/8b,6,45,3,{4}12,34,
{4}2h[8:1]/4h[8:1],5h[8:1]/7h[8:1],18,6h[4:1],
{4}8,{8}3,3,{4}24,12,
{8}3,2,18,7,{4}26,8-4[8:1]/7-4[8:1],

{4},2-5[8:1]/1-5[8:1],,7x/8x,
{4}1h[8:1]/6h[8:1],3h[8:1]/8h[8:1],12,{8}3,3,
{8}1,1,2,2,6,6,8,8,
{4}7,12,34,5<3[2:1]/2q5[2:1],
{2},{4},46,
{4}7h[4:1],5h[4:1],4,4-8[8:1]/3-8[8:1],
{4},6-1[8:1]/5-1[8:1],,34,
{8}12,3,56,7,{4}57,3b/5b,

{4}3h[4:1]/4,8,5/6h[4:1],1,
{8}2,2,4,4,5,5,{4}7,
{4}7h[4:1]/8,4,1/2h[4:1],5,
{4}5h[8:1]/6h[8:1],3h[8:1]/4h[8:1],1bx/8bx,3b/6b,
E

MASTER

(116)
{1},
{1},
{4}24,34,57,56,
{4}24,45,{2}5/6-4[8:1],

{2}3/4>2[8:1],2>4[8:1]/4,
{2}3/4>2[8:1],{4}24,24,
{2}5<7[8:1]/6,5/7<5[8:1],
{2}5<7[8:1]/6,{8}56,56,{4}56,

{4}2/8qq8[4:1],1pp1[4:1]/8,{2},
{4}24,4/6V84[4:1],{2},
{2}3>1[8:1]/4,1/2q6[8:1],
{4}7-3[8:1]/8,5p2[8:3]/7,{2},
{4}24,1>3v5[4:1]*<7v5[4:1]/5,{2},
{4}56,6h[4:1]/7p1[4:1],,{8},28,
{4}28,3V16[4:1]/4,3/5h[4:1],,
{2}7<3[4:1]/8<3[4:1],{8},34,{4}3-6-1-4-7-2[4:5]/4h[2:3],

{1},
{2},{4}35,5h[2:3]/7>5qq8[4:5],
{1},
{2},{4}57,5-7[8:1]/6,
{4}35,4/5-3[8:1],57,5-7[8:1]/6,
{4}3/5-1[8:1],56,2-5[8:1]/8,2/7-4[8:1],
{4}5-8[8:1]/7,3/5-1[8:1],5-7[8:1]/7,45,
{4}6-3[8:1]/7-2[8:1],67,{2}1/4V68V24[2:1],
{2},{4}1-5[8:1]/5,1bx/6pp3[8:3],

{2}4h[4:1]/6,{4}2v4[8:1]/4,2/5-1[8:1],
{4}5/6-8[8:1],2>5[8:1]/6,2/8-4[8:1],2pp7[8:3]/8,
{2}2/5h[4:1],{4}6/8v6[8:1],2-4[8:1]/8,
{4}2/5-8[8:1],1qq7[8:1]*pp3[8:1]/5,,4/6qq8[8:3],
{2}5h[4:1]/6,{4}1v7[8:1]/2,1/4p8[8:1],
{2}4-2[8:1]*-6[8:1]/5,{4}1-5[8:1]/7,1/6>3[8:1],
{4}2q6[8:1]/6,2/5-8[8:1],15,1-5[8:1]/8,
{4}1/2-6[8:1],1<7[8:1]/2>4[8:1],1/2-6[8:1],2/8<5[8:1],

{4}4/8>3[8:1],5v8[8:1]/8,4/5v2[8:1],5/7<4[8:1],
{4}1>3[8:1]/7,1/4-8[8:1],2-5[8:1]/4,2/8<5[8:1],
{4}4/8>3[8:1],5pp7[8:1]/8,2/5qq3[8:1],57,
{4}3>1[8:1]/5,3-7[8:1]/4,1/3-1[8:1],3q2[8:3]*<2[8:3]/4,
{2},{8},24,{4}2-5[8:1]/4,2/6-1[8:1],5-1[8:1]/6,5/8-4[8:1],2-6[8:1]*-4[8:1]/8,
{4},1/7-5[8:1]*-3[8:1],,1-5[8:1]/2-4[8:1],
{4}1b-7[8:1]/2b-6[8:1],1b-5[8:1]/2b-4[8:1],{2}1bqq7[8:1]/2b,

{2}2-5[8:1]/5h[4:1],3-5[8:1]/4h[4:1],
{4}2>6[4:1]/4,25,{8},18,{4}1/8-2[8:1],
{4}7-3[8:1]/8,6-4[8:1]/7,56,34,
{4}3/4qq2[8:1],4pp6[8:1]/5,{2}3/4>6p5[4:3],
{2},{4},46,

{4}3>6[2:1]/5,A4/B4,,D5/E5,
{4}4/6<3[2:1],A5/B5,,D5/E5,
{4}3>6[2:1]/5,A4/B4,,D5/E5,
{2}5h[4:1]/7z3[8:3],{4},1-5[8:1]/2,

{4}1w5b[8:1]/8,A1f/E1/E2,2/8v6[8:1],5-8[8:1]/8,
{4}5/6-2[8:1],1-6[8:1]*-5[8:1]/6,,4/7qq1[8:3],
{2}5h[4:1]/7,{4}3v5[8:1]/4,3/8-4[8:1],
{4}3-8[8:1]/8,3/4<7[8:1]*v1[8:1],,2pp8[8:3]/6,
{2}2/4h[4:1],{4}5-8[8:1]/7,5/6q2[8:1],
{2}4<7[8:1]*>1[8:1]/6,{4}2/8-4[8:1],3<6[8:1]/8,
{4}3/7p3[8:1],5-8[8:1]/7,25,1/8-4[8:1],
{4}7-3[8:1]/8,7<5[8:1]/8>2[8:1],7-3[8:1]/8,7/1>4[8:1],

{4}1<6[8:1]/8,1/4v2[8:1],4v6[8:1]/7,2>5[8:1]/4,
{4}2/8<5[8:1],4-2[8:1]/8,4/6-8[8:1],1>4[8:1]/6,
{4}1<6[8:1]/7,1/4qq2[8:1],4pp6[8:1]/7,24,
{4}4/6-2[8:1],5/6-4[8:1],6-1[8:1]/8,5/6p7[8:3]*>7[8:3],
{2},{8},57,{4}5/7-4[8:1],
{4}3-8[8:1]/7,3/4-1[8:1],4/5-8[8:1],5/6-4[8:1]*-2[8:1],
{4},3-7[8:1]*-5[8:1]/4,,7-5[8:1]/8-4[8:1],
{4}7b-3[8:1]/8b-2[8:1],7b-5[8:1]/8b-4[8:1],{2}7b/8bpp2[8:1],

{8}2>4[8:1]/4,24,{4},{8}3/4>2[8:1],34,{4},
{8}2>4[8:1]/4,24,{4},45,56,
{8}5/7<5[8:1],57,{4},{8}5<7[8:1]/6,56,{4},
{4}7-5[8:1]/8,1-3[8:1]/7,{2}1/8-6v4[4:1]*-2v4[4:1],
E

Re:MASTER


名前:
コメント:

タグ:

+ タグ編集
  • タグ:
最終更新:2026年01月11日 15:26